<svg xmlns="http://www.w3.org/2000/svg"><defs><font id="WorkSans" horiz-adv-x="532"><font-face alphabetic="0" ascent="930" descent="-243" font-family="Work Sans ExtraLight" panose-1="0 0 3 0 0 0 0 0 0 0" units-per-em="1000"/><glyph glyph-name="space" horiz-adv-x="292"/><glyph d="M114 316L112 177H87L85 316V660H114V316ZM113 54T121 46T130 24Q130 11 122 3T99 -6Q86 -6 78 2T69 24Q69 37 77 45T99 54Q113 54 121 46Z" glyph-name="exclam" horiz-adv-x="199" unicode="!"/><glyph d="M200 506H175V682H205L200 506ZM94 506H69V682H99L94 506Z" glyph-name="quotedbl" horiz-adv-x="271" unicode="&quot;"/><glyph d="M453 438L421 231H562V208H417L385 0H359L391 208H200L168 0H142L174 208H39V231H178L210 438H71V461H213L244 660H270L239 461H430L461 660H487L456 461H595V438H453ZM427 438H236L204 231H395L427 438Z" glyph-name="numbersign" horiz-adv-x="634" unicode="#"/><glyph d="M289 0Q199 4 138 48T55 171L81 185Q96 113 152 71T289 24V315Q217 330 174 345T101 394T71 484Q71 531 97 570T173 634T289 660V760H313V660Q394 656 446 621T522 514L499 496Q479 564 433 598T313 636V336Q384 322 427 307T499 258T529 168Q529 94 471 48T313 0V-100H289V0ZM289 636Q202 635 151 593T99 485Q99 438 124 410T188 368T289 341V636ZM396 26T449 63T502 167Q502 213 477 241T413 283T313 310V24Q396 26 449 63Z" glyph-name="dollar" horiz-adv-x="587" unicode="$"/><glyph d="M252 662T288 613T324 491Q324 419 288 371T182 323Q112 323 76 371T39 491Q39 564 75 613T182 662Q252 662 288 613ZM593 660H622L180 0H151L593 660ZM125 639T96 597T66 491Q66 427 95 387T182 346Q240 346 269 386T298 491Q298 555 269 597T182 639Q125 639 96 597ZM663 337T699 289T735 167Q735 94 699 46T593 -2Q523 -2 486 46T449 167Q449 240 486 288T593 337Q663 337 699 289ZM535 314T506 273T476 167Q476 104 505 63T593 21Q650 21 679 62T708 167Q708 231 679 272T593 314Q535 314 506 273Z" glyph-name="percent" horiz-adv-x="774" unicode="%"/><glyph d="M497 49T526 31T588 12L583 -10Q548 -10 516 10T438 81Q364 -10 239 -10Q154 -10 100 31T46 143Q46 212 88 258T220 357Q169 424 151 458T133 531Q133 592 172 629T276 667Q338 667 376 635T414 545Q414 489 381 445T257 350Q281 317 327 258Q406 157 436 120Q466 166 481 229T495 364L519 362Q520 288 504 220T452 101Q497 49 526 31ZM223 643T192 613T160 532Q160 508 166 489T189 444T242 370Q327 417 357 456T388 545Q388 590 358 616T276 643Q223 643 192 613ZM354 14T421 100Q390 137 310 241L235 337Q178 305 144 279T92 220T73 144Q73 85 119 50T236 14Q354 14 421 100Z" glyph-name="ampersand" horiz-adv-x="582" unicode="&amp;"/><glyph d="M94 506H69V682H99L94 506Z" glyph-name="quotesingle" horiz-adv-x="165" unicode="'"/><glyph d="M258 725Q167 648 125 540T82 284Q82 136 124 29T258 -157L243 -174Q147 -92 101 20T55 284Q55 436 101 548T243 742L258 725Z" glyph-name="parenleft" horiz-adv-x="271" unicode="("/><glyph d="M124 660T170 548T217 284Q217 133 171 21T28 -174L13 -157Q105 -79 147 28T189 284Q189 433 147 540T13 725L28 742Q124 660 170 548Z" glyph-name="parenright" horiz-adv-x="271" unicode=")"/><glyph d="M323 446L400 339L380 324L302 430L261 494L219 430L142 324L121 339L199 446L246 505L172 525L47 566L55 590L180 550L252 522L248 598V730H274V598L270 522L341 550L467 590L474 566L349 525L275 505L323 446Z" glyph-name="asterisk" horiz-adv-x="522" unicode="*"/><glyph d="M536 303H316V77H289V303H68V329H289V549H316V329H536V303Z" glyph-name="plus" horiz-adv-x="604" unicode="+"/><glyph d="M114 54T124 39T135 -1Q135 -35 117 -66T67 -114L49 -100Q76 -89 95 -62T114 -10Q114 -5 112 5H110Q104 -6 91 -6Q79 -6 71 2T63 24Q63 36 72 45T94 54Q114 54 124 39Z" glyph-name="comma" horiz-adv-x="186" unicode=","/><glyph d="M362 254H72V283H362V254Z" glyph-name="hyphen" horiz-adv-x="434" unicode="-"/><glyph d="M107 54T115 46T123 24Q123 11 115 3T93 -6Q80 -6 72 2T63 24Q63 38 71 46T93 54Q107 54 115 46Z" glyph-name="period" horiz-adv-x="186" unicode="."/><glyph d="M62 -70H34L303 730H331L62 -70Z" glyph-name="slash" horiz-adv-x="366" unicode="/"/><glyph d="M183 -10T122 78T61 330Q61 494 122 582T298 670Q413 670 474 582T535 330Q535 166 474 78T298 -10Q183 -10 122 78ZM399 15T453 96T507 330Q507 483 453 564T298 645Q197 645 144 564T90 330Q90 177 143 96T298 15Q399 15 453 96Z" glyph-name="zero" horiz-adv-x="596" unicode="0"/><glyph d="M240 660V0H212V512Q212 581 213 616Q183 573 137 542T38 494L30 518Q85 537 137 575T213 660H240Z" glyph-name="one" horiz-adv-x="333" unicode="1"/><glyph d="M58 24Q207 145 281 212T399 344T443 473Q443 552 395 598T264 645Q180 645 129 593T73 453L48 466Q54 559 111 614T264 670Q360 670 415 617T471 473Q471 405 430 340T315 207T101 26V25H142H497V0H58V24Z" glyph-name="two" horiz-adv-x="543" unicode="2"/><glyph d="M353 670T404 624T455 498Q455 434 421 388T328 333V332Q391 328 431 283T471 171Q471 118 444 77T370 13T265 -10Q176 -10 120 30T45 142L70 157Q85 91 134 53T266 15Q343 15 393 58T443 174Q443 241 400 280T277 320H232V346H277Q348 346 387 387T426 494Q426 565 383 605T263 645Q200 645 156 612T94 520L66 534Q89 597 141 633T263 670Q353 670 404 624Z" glyph-name="three" horiz-adv-x="533" unicode="3"/><glyph d="M534 199H399V0H371V199H39V221L362 660H399V223H534V199ZM70 223H371V565L372 634H370Q351 605 323 565L70 223Z" glyph-name="four" horiz-adv-x="561" unicode="4"/><glyph d="M346 404T393 378T466 306T492 199Q492 138 465 91T390 17T278 -10Q88 -10 52 148L78 160Q91 87 142 51T278 15Q332 15 374 38T440 103T464 198Q463 279 414 329T283 379Q158 379 98 298H73L105 660H466V635H128L102 345L101 327H102Q159 404 286 404Q346 404 393 378Z" glyph-name="five" horiz-adv-x="544" unicode="5"/><glyph d="M443 670T488 546L462 534Q447 585 408 615T307 645Q230 645 180 600T107 480T84 317Q84 281 92 213H95Q95 269 123 311T198 376T295 399Q392 399 447 343T503 194Q503 101 446 46T291 -10Q176 -10 117 77T58 330Q58 440 90 516T178 631T308 670Q443 670 488 546ZM241 374T199 349T134 282T111 196Q111 145 133 104T197 40T290 16Q375 16 424 65T474 196Q474 275 425 324T294 374Q241 374 199 349Z" glyph-name="six" horiz-adv-x="555" unicode="6"/><glyph d="M493 660V635Q372 505 308 349T231 0H202Q214 188 277 346T462 635H25V660H493Z" glyph-name="seven" horiz-adv-x="507" unicode="7"/><glyph d="M377 670T431 625T486 506Q486 446 451 405T353 348V347Q427 332 471 285T515 171Q515 118 486 77T405 13T286 -10Q219 -10 167 13T86 77T57 171Q57 238 101 285T220 347V348Q157 362 122 403T86 506Q86 580 140 625T286 670Q377 670 431 625ZM208 644T161 606T114 504Q114 439 161 400T286 360Q364 360 411 399T458 504Q458 568 411 606T286 644Q208 644 161 606ZM345 15T390 35T461 90T486 172Q486 219 461 255T391 312T286 333Q228 333 183 313T112 256T86 172Q86 126 111 91T181 35T286 15Q345 15 390 35Z" glyph-name="eight" horiz-adv-x="572" unicode="8"/><glyph d="M391 670T453 581T515 330Q515 164 451 77T277 -10Q194 -10 138 28T64 132L93 147Q105 86 151 51T277 15Q388 15 438 107T489 338Q489 393 479 451H477Q477 392 448 349T371 284T272 261Q175 261 117 316T59 466Q59 559 118 614T276 670Q391 670 453 581ZM190 644T139 595T88 464Q88 384 138 336T274 287Q327 287 370 312T437 379T462 464Q462 515 439 556T373 620T277 644Q190 644 139 595Z" glyph-name="nine" horiz-adv-x="577" unicode="9"/><glyph d="M120 502T128 494T136 472Q136 459 128 451T106 442Q93 442 85 450T76 472Q76 486 84 494T106 502Q120 502 128 494ZM120 54T128 46T136 24Q136 11 128 3T106 -6Q93 -6 85 2T76 24Q76 38 84 46T106 54Q120 54 128 46Z" glyph-name="colon" horiz-adv-x="212" unicode=":"/><glyph d="M96 442T88 450T79 472Q79 486 87 494T109 502Q123 502 131 494T139 472Q139 459 131 451T109 442Q96 442 88 450ZM126 54T136 39T147 -1Q147 -35 130 -66T79 -114L61 -100Q88 -89 107 -62T126 -10Q126 -5 124 5H122Q116 -6 103 -6Q91 -6 83 2T75 24Q75 36 84 45T106 54Q126 54 136 39Z" glyph-name="semicolon" horiz-adv-x="212" unicode=";"/><glyph d="M536 516L110 300L536 83V52L87 283V316L536 547V516Z" glyph-name="less" horiz-adv-x="604" unicode="&lt;"/><glyph d="M521 400H83V426H521V400ZM521 197H83V222H521V197Z" glyph-name="equal" horiz-adv-x="604" unicode="="/><glyph d="M517 316V283L68 52V83L494 300L68 516V547L517 316Z" glyph-name="greater" horiz-adv-x="604" unicode="&gt;"/><glyph d="M335 670T389 625T443 501Q443 417 395 365T247 287V161H219V303Q293 324 335 349T396 411T415 499Q415 567 369 606T247 645Q78 645 56 488L32 501Q61 670 248 670Q335 670 389 625ZM246 54T254 46T263 24Q263 11 255 3T233 -6Q220 -6 212 2T203 24Q203 38 211 46T233 54Q246 54 254 46Z" glyph-name="question" horiz-adv-x="486" unicode="?"/><glyph d="M624 668T715 610T849 458T891 248Q891 127 855 59T755 -9Q703 -9 680 25T654 130Q633 65 584 29T465 -8Q402 -8 354 21T279 103T252 229Q252 303 280 358T360 443T476 473Q547 473 594 438T660 339L664 457H685L678 135Q677 77 697 45T760 13Q810 13 838 74T866 248Q866 358 827 447T702 591T482 646Q361 646 271 596T131 451T82 232Q82 108 133 18T276 -121T489 -169Q556 -169 618 -149T720 -92L735 -111Q690 -148 625 -170T489 -192Q360 -192 262 -141T110 5T56 232Q56 363 108 462T257 614T482 668Q624 668 715 610ZM387 451T333 391T279 230Q279 132 330 74T469 15Q523 15 565 41T630 113T655 218L656 252Q657 308 636 353T575 425T478 451Q387 451 333 391Z" glyph-name="at" horiz-adv-x="952" unicode="@"/><glyph d="M464 224H136L44 0H15L284 660H316L585 0H556L464 224ZM453 250L320 577L300 631L280 578L146 250H453Z" glyph-name="A" horiz-adv-x="600" unicode="A"/><glyph d="M101 660H333Q436 660 488 617T540 490Q540 428 508 388T412 334V333Q481 323 519 281T558 172Q558 88 501 44T333 0H101V660ZM333 346Q421 346 466 382T511 489Q511 561 466 598T333 635H129V346H333ZM337 25Q432 25 480 62T529 173Q529 246 481 283T337 320H129V25H337Z" glyph-name="B" horiz-adv-x="617" unicode="B"/><glyph d="M590 82T521 36T354 -10Q266 -10 199 31T95 150T58 330Q58 433 94 510T198 628T353 670Q558 670 609 500L582 487Q534 645 354 645Q274 645 214 607T121 497T87 330Q87 234 120 163T214 54T354 15Q443 15 504 57T588 176L616 166Q590 82 521 36Z" glyph-name="C" horiz-adv-x="656" unicode="C"/><glyph d="M465 660T548 578T632 338Q632 172 549 86T306 0H101V660H306Q465 660 548 578ZM452 25T527 105T603 338Q603 483 528 559T307 635H129V25H307Q452 25 527 105Z" glyph-name="D" horiz-adv-x="691" unicode="D"/><glyph d="M559 25V0H101V660H543V635H129V349H459V324H129V25H559Z" glyph-name="E" horiz-adv-x="593" unicode="E"/><glyph d="M129 635V349H459V324H129V0H101V660H542V635H129Z" glyph-name="F" horiz-adv-x="565" unicode="F"/><glyph d="M617 315V0H592V140Q568 69 507 30T350 -10Q262 -10 196 31T94 150T58 330Q58 433 95 510T199 628T354 670Q457 670 520 628T612 500L587 487Q537 645 354 645Q274 645 214 607T121 497T87 330Q87 234 119 163T211 54T351 15Q436 15 489 50T566 138T590 242V290H355V315H617Z" glyph-name="G" horiz-adv-x="685" unicode="G"/><glyph d="M602 660V0H574V324H129V0H101V660H129V349H574V660H602Z" glyph-name="H" horiz-adv-x="703" unicode="H"/><glyph d="M129 0H101V660H129V0Z" glyph-name="I" horiz-adv-x="229" unicode="I"/><glyph d="M417 212Q417 108 366 49T217 -10Q129 -10 81 35T32 160Q32 181 35 203L62 213Q59 189 59 169Q59 94 99 55T217 15Q303 15 346 68T389 216V660H417V212Z" glyph-name="J" horiz-adv-x="511" unicode="J"/><glyph d="M271 374L129 230V0H101V660H129V269L513 660H551L292 395L560 0H525L271 374Z" glyph-name="K" horiz-adv-x="576" unicode="K"/><glyph d="M538 25V0H101V660H129V25H538Z" glyph-name="L" horiz-adv-x="553" unicode="L"/><glyph d="M698 0H671V549L673 628L414 0H385L126 628H125L128 549V0H101V660H141L380 88L399 33H400L419 87L658 660H698V0Z" glyph-name="M" horiz-adv-x="799" unicode="M"/><glyph d="M601 0H564L161 574L127 631H126L128 564V0H101V660H137L541 86L575 30L574 96V660H601V0Z" glyph-name="N" horiz-adv-x="702" unicode="N"/><glyph d="M452 670T520 629T625 511T662 330Q662 226 626 150T521 32T360 -10Q268 -10 200 31T95 149T58 330Q58 434 95 510T200 628T360 670Q452 670 520 629ZM277 645T215 607T120 497T87 330Q87 234 120 163T215 54T360 15Q443 15 505 53T600 163T633 330Q633 426 600 497T505 606T360 645Q277 645 215 607Z" glyph-name="O" horiz-adv-x="720" unicode="O"/><glyph d="M415 660T475 610T535 472Q535 384 475 335T310 285H129V0H101V660H310Q415 660 475 610ZM402 310T454 352T506 472Q506 549 454 592T308 635H129V310H308Q402 310 454 352Z" glyph-name="P" horiz-adv-x="570" unicode="P"/><glyph d="M607 -168T643 -131L654 -156Q634 -175 604 -185T536 -195Q458 -195 408 -147T353 -10Q263 -8 197 34T94 152T58 330Q58 434 95 510T200 628T360 670Q452 670 520 629T625 511T662 330Q662 230 628 155T529 37T378 -10Q383 -89 425 -128T536 -168Q607 -168 643 -131ZM87 234T120 163T215 54T360 15Q443 15 505 53T600 163T633 330Q633 426 600 497T505 606T360 645Q277 645 215 607T120 497T87 330Q87 234 120 163Z" glyph-name="Q" horiz-adv-x="720" unicode="Q"/><glyph d="M552 0L356 295H342H129V0H101V660H342Q440 660 496 612T553 478Q553 403 510 356T388 298L584 0H552ZM429 321T477 362T525 478Q525 552 477 593T342 635H129V321H342Q429 321 477 362Z" glyph-name="R" horiz-adv-x="621" unicode="R"/><glyph d="M494 670T543 519L520 501Q498 575 443 610T300 645Q237 645 190 625T117 569T91 490Q91 449 112 421T183 373T321 338Q407 323 457 301T531 245T554 163Q554 113 524 74T438 12T312 -10Q206 -10 135 33T43 160L68 177Q83 98 149 57T313 15Q406 15 466 54T526 163Q526 222 478 256T314 310Q219 326 165 349T87 405T63 489Q63 538 91 579T174 645T300 670Q494 670 543 519Z" glyph-name="S" horiz-adv-x="603" unicode="S"/><glyph d="M540 635H292V0H264V635H15V660H540V635Z" glyph-name="T" horiz-adv-x="555" unicode="T"/><glyph d="M595 237Q595 118 529 54T344 -10Q225 -10 159 54T93 237V660H121V241Q121 132 179 74T344 15Q450 15 508 74T567 241V660H595V237Z" glyph-name="U" horiz-adv-x="688" unicode="U"/><glyph d="M312 0H277L19 660H49L265 109L295 28L325 109L541 660H570L312 0Z" glyph-name="V" horiz-adv-x="590" unicode="V"/><glyph d="M275 0H239L25 660H55L257 25L443 660H477L662 24L864 660H893L680 0H644L500 488L460 627H459L420 488L275 0Z" glyph-name="W" horiz-adv-x="919" unicode="W"/><glyph d="M487 0L270 316L49 0H14L253 341L35 660H69L271 364L478 660H512L288 340L520 0H487Z" glyph-name="X" horiz-adv-x="540" unicode="X"/><glyph d="M276 256V0H248V256L15 660H48L177 434L262 286L475 660H508L276 256Z" glyph-name="Y" horiz-adv-x="523" unicode="Y"/><glyph d="M537 25V0H34V25L486 635H42V660H518V635L67 25H537Z" glyph-name="Z" horiz-adv-x="567" unicode="Z"/><glyph d="M104 706V-144H268V-168H78V730H268V706H104Z" glyph-name="bracketleft" horiz-adv-x="283" unicode="["/><glyph d="M63 730L332 -70H304L35 730H63Z" glyph-name="backslash" horiz-adv-x="366" unicode="\"/><glyph d="M205 -168H15V-144H179V706H15V730H205V-168Z" glyph-name="bracketright" horiz-adv-x="283" unicode="]"/><glyph d="M472 355L269 704L66 355H35L254 730H284L503 355H472Z" glyph-name="asciicircum" horiz-adv-x="538" unicode="^"/><glyph d="M507 -122H0V-97H507V-122Z" glyph-name="underscore" horiz-adv-x="507" unicode="_"/><glyph d="M262 583H238L148 734H179L262 583Z" glyph-name="grave" horiz-adv-x="541" unicode="`"/><glyph d="M509 14T521 22L519 -1Q504 -10 479 -10Q403 -10 403 86V87Q382 41 326 16T207 -10Q133 -10 91 22T48 111Q48 170 92 205T234 258L403 289V345Q403 412 364 449T252 486Q186 486 144 459T80 372L58 388Q103 510 252 510Q338 510 384 469T431 347V79Q431 47 444 31T483 14Q509 14 521 22ZM254 15T298 30T373 77T403 154V265L247 236Q157 220 117 190T77 111Q77 65 112 40T212 15Q254 15 298 30Z" glyph-name="a" horiz-adv-x="526" unicode="a"/><glyph d="M418 510T479 441T540 250Q540 128 479 59T311 -10Q237 -10 186 28T114 135L113 0H87V730H115V368Q135 435 186 472T311 510Q418 510 479 441ZM404 15T458 77T512 250Q512 361 458 423T307 486Q219 486 167 424T115 254V246Q115 139 167 77T307 15Q404 15 458 77Z" glyph-name="b" horiz-adv-x="593" unicode="b"/><glyph d="M360 510T412 475T484 374L459 361Q443 421 398 453T285 486Q189 486 135 423T81 250Q81 139 134 77T283 15Q352 15 402 50T463 146L488 137Q473 70 417 30T283 -10Q174 -10 114 59T53 250Q53 372 114 441T285 510Q360 510 412 475Z" glyph-name="c" unicode="c"/><glyph d="M507 730V0H481L480 134Q460 66 408 28T282 -10Q175 -10 114 59T53 250Q53 372 114 441T282 510Q355 510 407 473T479 367V730H507ZM372 15T424 75T479 239V261Q477 365 425 425T286 486Q189 486 135 424T81 250Q81 139 135 77T286 15Q372 15 424 75Z" glyph-name="d" horiz-adv-x="593" unicode="d"/><glyph d="M492 235H81Q85 131 138 73T285 15Q346 15 394 42T465 119L488 107Q461 52 408 21T285 -10Q176 -10 115 59T53 250Q53 372 113 441T279 510Q380 510 436 441T493 252L492 235ZM188 486T136 427T81 261H467Q464 367 416 426T279 486Q188 486 136 427Z" glyph-name="e" horiz-adv-x="543" unicode="e"/><glyph d="M144 500H326V476H144V0H116V476H16V500H116V583Q116 654 152 694T255 735Q306 735 333 706L323 684Q310 698 295 704T256 710Q203 710 174 677T144 582V500Z" glyph-name="f" horiz-adv-x="334" unicode="f"/><glyph d="M408 42T452 12T497 -70Q497 -112 468 -145T386 -196T265 -215Q157 -215 96 -178T34 -81Q34 -41 62 -12T138 27Q104 38 84 61T63 113Q63 150 90 175T160 209Q113 228 87 264T61 351Q61 423 115 466T260 510Q331 510 379 483Q383 533 414 562T495 592L503 568Q456 568 429 543T398 471Q459 427 459 351Q459 278 405 235T260 192Q228 192 199 198Q150 194 120 172T90 117Q90 84 120 63T208 42H333Q408 42 452 12ZM89 289T135 252T260 215Q338 215 384 252T431 351Q431 413 385 449T260 486Q182 486 136 450T89 351Q89 289 135 252ZM327 -191T373 -176T445 -134T471 -73Q471 -31 433 -7T328 18H200Q138 18 100 -8T61 -77Q61 -129 116 -160T269 -191Q327 -191 373 -176Z" glyph-name="g" horiz-adv-x="503" unicode="g"/><glyph d="M401 511T451 463T502 328V1H474V321Q474 400 430 443T310 486Q256 486 212 461T141 393T115 295V0H87V730H115V381Q135 441 188 476T314 511Q401 511 451 463Z" glyph-name="h" horiz-adv-x="582" unicode="h"/><glyph d="M87 598T79 606T71 627Q71 640 79 648T101 656Q114 656 122 648T130 627Q130 614 122 606T101 598Q87 598 79 606ZM115 0H87V500H115V0Z" glyph-name="i" horiz-adv-x="201" unicode="i"/><glyph d="M113 656T121 648T130 627Q130 614 122 606T101 598Q88 598 80 606T71 627Q71 640 79 648T101 656Q113 656 121 648ZM115 -62Q115 -134 77 -174T-21 -215Q-69 -215 -98 -191L-90 -165Q-78 -177 -60 -183T-21 -189Q28 -189 57 -155T87 -60V500H115V-62Z" glyph-name="j" horiz-adv-x="201" unicode="j"/><glyph d="M241 278L115 158V0H87V730H115V195L439 500H478L262 297L484 0H449L241 278Z" glyph-name="k" horiz-adv-x="498" unicode="k"/><glyph d="M111 112Q111 61 127 39T180 16Q200 16 212 18T241 28L238 2Q214 -10 177 -10Q129 -10 106 19T83 110V730H111V112Z" glyph-name="l" horiz-adv-x="250" unicode="l"/><glyph d="M783 512T834 464T885 329V2H857V326Q857 403 813 445T694 487Q640 487 596 462T526 393T500 298V0H472V324Q472 401 428 443T309 486Q256 486 212 461T141 392T115 295V0H87V500H113L114 381Q135 440 189 475T313 510Q385 510 433 475T495 375Q513 436 569 474T698 512Q783 512 834 464Z" glyph-name="m" horiz-adv-x="965" unicode="m"/><glyph d="M401 510T451 462T502 327V0H474V320Q474 400 430 443T310 486Q256 486 212 461T141 392T115 294V0H87V500H113V380Q134 440 188 475T314 510Q401 510 451 462Z" glyph-name="n" horiz-adv-x="582" unicode="n"/><glyph d="M398 510T460 441T523 250Q523 128 461 59T289 -10Q179 -10 116 59T53 250Q53 371 116 440T289 510Q398 510 460 441ZM192 486T137 423T81 250Q81 140 136 77T289 14Q385 14 440 77T495 250Q495 360 440 423T289 486Q192 486 137 423Z" glyph-name="o" horiz-adv-x="576" unicode="o"/><glyph d="M418 510T479 441T540 250Q540 128 479 59T311 -10Q238 -10 187 27T115 132V-210H87V500H113L114 365Q134 433 185 471T311 510Q418 510 479 441ZM404 15T458 77T512 250Q512 361 458 423T307 486Q219 486 167 424T115 254V246Q115 139 167 77T307 15Q404 15 458 77Z" glyph-name="p" horiz-adv-x="593" unicode="p"/><glyph d="M508 500V-210H480V133Q460 65 408 28T283 -10Q176 -10 115 59T54 250Q54 372 115 441T283 510Q357 510 409 472T481 366L482 500H508ZM374 15T426 75T480 239V261Q478 365 426 425T287 486Q190 486 136 424T82 250Q82 139 136 77T287 15Q374 15 426 75Z" glyph-name="q" horiz-adv-x="594" unicode="q"/><glyph d="M322 510T345 489L335 464Q323 474 309 479T271 485Q228 485 193 458T136 385T115 287V0H87V500H112L114 381Q133 439 176 474T277 510Q322 510 345 489Z" glyph-name="r" horiz-adv-x="355" unicode="r"/><glyph d="M166 -10T111 21T39 110L63 124Q77 70 126 43T248 15Q324 15 368 45T412 126Q412 169 376 194T249 235Q145 253 103 284T61 371Q61 410 85 441T151 491T248 510Q327 510 373 480T435 386L411 372Q385 486 248 486Q203 486 167 472T110 432T89 376Q89 329 126 303T257 260Q358 243 399 213T440 127Q440 64 387 27T244 -10Q166 -10 111 21Z" glyph-name="s" horiz-adv-x="488" unicode="s"/><glyph d="M341 29Q323 12 296 1T238 -10Q178 -10 147 24T115 126V476H15V500H115V628L143 636V500H334V476H143V128Q143 15 241 15Q293 15 329 52L341 29Z" glyph-name="t" horiz-adv-x="346" unicode="t"/><glyph d="M488 500V0H462L461 119Q440 60 386 25T257 -10Q175 -10 128 36T81 168V500H109V174Q109 96 148 56T262 15Q325 15 369 43T437 115T460 202V500H488Z" glyph-name="u" horiz-adv-x="574" unicode="u"/><glyph d="M468 500L259 0H230L20 500H52L244 31L438 500H468Z" glyph-name="v" horiz-adv-x="488" unicode="v"/><glyph d="M763 500L595 0H567L396 463L226 0H198L31 500H61L213 35L382 500H411L581 35L732 500H763Z" glyph-name="w" horiz-adv-x="793" unicode="w"/><glyph d="M431 0L240 237L56 0H21L223 259L29 500H67L242 282L410 500H445L259 261L469 0H431Z" glyph-name="x" horiz-adv-x="483" unicode="x"/><glyph d="M224 -98Q197 -163 165 -189T84 -215Q24 -215 0 -181L12 -158Q34 -191 84 -191Q122 -191 149 -170T199 -92L236 -1L24 500H56L229 81L250 31L270 84L439 500H470L224 -98Z" glyph-name="y" horiz-adv-x="491" unicode="y"/><glyph d="M42 23L360 424L405 476H36V500H437V477L134 92L76 24H451V0H42V23Z" glyph-name="z" horiz-adv-x="484" unicode="z"/><glyph d="M152 -103T178 -126T252 -150L250 -174Q190 -174 158 -144T125 -59V177Q125 224 96 248T12 273V297Q67 297 96 321T125 392V628Q125 682 157 712T250 742L252 719Q204 719 178 695T152 629V391Q152 350 131 323T68 285Q109 274 130 247T152 178V-60Q152 -103 178 -126Z" glyph-name="braceleft" horiz-adv-x="276" unicode="{"/><glyph d="M103 -168H78V730H103V-168Z" glyph-name="bar" horiz-adv-x="181" unicode="|"/><glyph d="M151 346T180 322T265 297V273Q210 273 181 248T151 177V-59Q151 -113 119 -143T26 -174L24 -150Q72 -150 98 -127T124 -60V178Q124 219 146 246T209 285Q168 296 146 323T124 391V629Q124 671 98 695T24 719L26 742Q86 742 118 712T151 628V392Q151 346 180 322Z" glyph-name="braceright" horiz-adv-x="276" unicode="}"/><glyph d="M435 289T346 289Q316 289 293 298T238 328Q211 346 191 354T146 363Q113 363 95 344T70 284H43Q57 388 145 388Q176 388 199 378T253 349Q281 331 300 323T344 314Q377 314 395 333T420 393H447Q435 289 346 289Z" glyph-name="asciitilde" horiz-adv-x="490" unicode="~"/><glyph glyph-name="uni00A0" horiz-adv-x="292"/><glyph d="M82 446T74 454T65 476Q65 489 73 497T95 506Q109 506 117 498T126 476Q126 463 118 455T95 446Q82 446 74 454ZM81 185L83 323H108L110 185V-160H81V185Z" glyph-name="exclamdown" horiz-adv-x="191" unicode="¡"/><glyph d="M479 72T424 32T294 -10V-100H270V-9Q169 -4 114 64T58 250Q58 366 114 434T270 509V600H294V510Q368 509 419 474T489 374L463 361Q447 420 403 452T294 486V14Q360 16 409 51T468 146L493 137Q479 72 424 32ZM85 144T133 82T270 14V486Q182 479 134 417T85 250Q85 144 133 82Z" glyph-name="cent" horiz-adv-x="543" unicode="¢"/><glyph d="M547 122Q547 56 512 23T416 -10Q371 -10 340 5T272 51Q247 23 211 7T132 -10Q88 -10 62 9T35 60Q35 93 63 113T140 133Q180 133 208 120T269 83Q289 117 289 158Q289 194 277 225T232 298H93V322H213Q174 372 159 407T144 484Q144 568 198 619T340 670Q414 670 461 631T517 523L492 511Q484 572 443 608T339 645Q262 645 217 602T171 487Q171 449 186 415T241 327L245 322H452V298H262Q290 258 301 227T313 160Q313 110 286 69Q319 41 347 27T414 13Q521 13 523 122H547ZM172 12T203 25T255 64Q228 86 202 98T141 110Q104 110 83 97T61 60Q61 38 81 25T134 12Q172 12 203 25Z" glyph-name="sterling" horiz-adv-x="583" unicode="£"/><glyph d="M489 255T449 206L550 105L532 86L431 187Q383 142 307 142Q231 142 183 187L83 86L64 106L164 206Q124 257 124 332Q124 406 162 455L64 554L83 573L181 475Q229 520 307 520Q383 520 433 475L532 573L550 555L451 454Q489 407 489 332Q489 255 449 206ZM377 167T419 212T461 332Q461 406 419 450T307 495Q236 495 194 451T152 332Q152 257 194 212T307 167Q377 167 419 212Z" glyph-name="currency" horiz-adv-x="614" unicode="¤"/><glyph d="M329 275H506V252H302V150H506V128H302V0H276V128H72V150H276V252H72V275H249L267 274L42 660H75L268 320L288 281H290L310 320L503 660H536L311 274L329 275Z" glyph-name="yen" horiz-adv-x="578" unicode="¥"/><glyph d="M110 365H85V730H110V365ZM110 -168H85V197H110V-168Z" glyph-name="brokenbar" horiz-adv-x="195" unicode="¦"/><glyph d="M516 221T483 189T397 141Q432 123 448 96T464 31Q464 -8 442 -40T378 -91T277 -110Q135 -110 95 -22L117 -6Q147 -86 277 -86Q352 -86 394 -54T436 29Q436 65 418 89T359 129T246 156Q135 172 91 203T46 293Q46 339 78 371T164 418Q129 437 114 464T98 529Q98 568 120 600T184 651T285 670Q355 670 401 648T466 582L445 566Q414 646 285 646Q210 646 168 614T126 531Q126 478 168 450T316 405Q426 389 471 358T516 267Q516 221 483 189ZM418 167T453 194T488 266Q488 313 449 338T309 379Q240 388 195 405Q143 392 109 365T74 294Q74 262 90 241T145 206T252 181Q326 170 365 155Q418 167 453 194Z" glyph-name="section" horiz-adv-x="548" unicode="§"/><glyph d="M191 652T199 645T207 624Q207 611 199 603T178 595Q165 595 157 603T149 624Q149 637 157 644T178 652Q191 652 199 645ZM377 652T384 645T392 624Q392 611 385 603T364 595Q351 595 343 603T335 624Q335 637 343 644T364 652Q377 652 384 645Z" glyph-name="dieresis" horiz-adv-x="541" unicode="¨"/><glyph d="M502 670T579 628T699 508T742 330Q742 229 700 152T580 33T400 -10Q299 -10 221 32T101 152T58 330Q58 431 100 508T221 627T400 670Q502 670 579 628ZM306 646T235 607T125 496T85 330Q85 236 124 165T235 54T400 14Q494 14 565 53T676 164T716 330Q716 424 677 495T566 606T400 646Q306 646 235 607ZM527 513T562 414L539 403Q512 490 410 490Q337 490 296 447T255 328Q255 252 296 209T410 166Q460 166 496 191T544 261L566 252Q552 202 510 173T411 143Q326 143 278 192T229 328Q229 415 277 464T411 513Q527 513 562 414Z" glyph-name="copyright" horiz-adv-x="801" unicode="©"/><glyph d="M340 347T350 352L349 333Q337 326 320 326Q269 326 269 388V389Q255 359 218 343T139 326Q89 326 60 347T31 408Q31 447 61 471T157 506L267 525V554Q267 596 242 620T169 644Q125 644 98 627T57 574L37 583Q50 622 84 643T169 665Q227 665 260 637T293 556V388Q293 347 325 347Q340 347 350 352ZM170 348T199 358T247 388T267 437V506L167 487Q109 477 83 458T57 408Q57 379 79 364T142 348Q170 348 199 358ZM36 240H337V219H36V240Z" glyph-name="ordfeminine" horiz-adv-x="358" unicode="ª"/><glyph d="M79 265L221 69H188L47 265L188 461H221L79 265ZM208 265L350 69H317L176 265L317 461H350L208 265Z" glyph-name="guillemotleft" horiz-adv-x="400" unicode="«"/><glyph d="M530 329V168H502V303H74V329H530Z" glyph-name="logicalnot" horiz-adv-x="604" unicode="¬"/><glyph d="M362 254H72V283H362V254Z" glyph-name="uni00AD" horiz-adv-x="434" unicode="­"/><glyph d="M502 670T579 628T699 508T742 330Q742 229 700 152T580 33T400 -10Q299 -10 221 32T101 152T58 330Q58 431 100 508T221 627T400 670Q502 670 579 628ZM494 14T565 53T676 164T716 330Q716 424 677 495T566 606T400 646Q306 646 235 607T125 496T85 330Q85 236 124 165T235 54T400 14Q494 14 565 53ZM554 363T529 337T454 306L561 143H532L427 305H303V143H277V513H431Q491 513 522 487T554 409Q554 363 529 337ZM303 325H431Q530 327 530 409Q530 492 431 492H303V325Z" glyph-name="registered" horiz-adv-x="801" unicode="®"/><glyph d="M420 603H121V627H420V603Z" glyph-name="overscore" horiz-adv-x="541" unicode="¯"/><glyph d="M130 389T92 428T53 529Q53 592 91 631T193 670Q256 670 295 631T334 529Q334 467 296 428T193 389Q130 389 92 428ZM245 412T276 444T308 529Q308 581 277 613T193 646Q142 646 111 614T79 529Q79 477 110 445T193 412Q245 412 276 444Z" glyph-name="degree" horiz-adv-x="387" unicode="°"/><glyph d="M530 385V360H316V115H289V360H74V385H289V625H316V385H530ZM74 25H530V0H74V25Z" glyph-name="plusminus" horiz-adv-x="604" unicode="±"/><glyph d="M37 354Q91 398 147 446Q203 492 233 533T264 615Q264 660 237 686T162 713Q114 713 85 684T54 604L30 611Q34 667 69 701T163 735Q222 735 256 702T290 615Q290 533 164 431L72 356V355H105H305V333H37V354Z" glyph-name="uni00B2" horiz-adv-x="336" unicode="²"/><glyph d="M205 735T237 706T269 629Q269 592 250 568T195 534V532Q231 528 254 502T278 438Q278 388 242 358T149 327Q97 327 63 351T16 419L39 431Q48 392 75 371T150 349Q195 349 223 373T252 439Q252 478 227 500T154 522H129V543H154Q195 543 218 567T242 627Q242 667 218 690T149 713Q110 713 85 694T51 642L28 652Q38 690 71 712T149 735Q205 735 237 706Z" glyph-name="uni00B3" horiz-adv-x="317" unicode="³"/><glyph d="M393 734L303 583H279L362 734H393Z" glyph-name="acute" horiz-adv-x="541" unicode="´"/><glyph d="M484 500V0H458L457 120Q436 61 382 26T253 -10Q202 -10 163 13T104 80V-210H76V500H104V174Q104 97 146 56T258 15Q313 15 358 39T429 105T456 196V500H484Z" glyph-name="uni00B5" horiz-adv-x="560" unicode="µ"/><glyph d="M460 -100H433V636H296V-100H270V242Q199 242 145 268T62 341T32 451Q32 513 61 560T145 634T270 660H460V-100ZM174 636T117 586T59 451Q59 367 116 317T270 266V636Q174 636 117 586Z" glyph-name="paragraph" horiz-adv-x="542" unicode="¶"/><glyph d="M113 389T121 381T129 359Q129 346 121 338T99 329Q86 329 78 337T69 359Q69 373 77 381T99 389Q113 389 121 381Z" glyph-name="middot" horiz-adv-x="198" unicode="·"/><glyph d="M269 8Q328 -19 353 -49T379 -116Q379 -155 353 -179T285 -204Q253 -204 230 -195T188 -164L200 -144Q217 -165 237 -174T283 -183Q314 -183 333 -165T353 -115Q353 -82 330 -56T244 3L269 8Z" glyph-name="cedilla" horiz-adv-x="541" unicode="¸"/><glyph d="M146 730V333H120V632Q120 654 122 698Q103 675 73 656T11 626V648Q41 657 75 680T124 730H146Z" glyph-name="uni00B9" horiz-adv-x="203" unicode="¹"/><glyph d="M105 327T70 368T35 496Q35 582 70 623T178 665Q251 665 285 624T320 496Q320 410 286 369T178 327Q105 327 70 368ZM238 349T266 385T294 496Q294 571 266 607T178 644Q118 644 90 608T61 496Q61 421 89 385T178 349Q238 349 266 385ZM43 240H313V219H43V240Z" glyph-name="ordmasculine" horiz-adv-x="355" unicode="º"/><glyph d="M80 461L221 265L80 69H47L189 265L47 461H80ZM209 461L350 265L209 69H176L318 265L176 461H209Z" glyph-name="guillemotright" horiz-adv-x="397" unicode="»"/><glyph d="M146 665V268H120V567Q120 611 122 633Q103 610 73 591T11 561V583Q41 592 75 615T124 665H146ZM527 660H557L90 0H60L527 660ZM644 112H565V-4H541V112H343V130L533 393H565V133H644V112ZM541 133V321Q541 353 542 369H540L508 322L369 133H541Z" glyph-name="onequarter" horiz-adv-x="664" unicode="¼"/><glyph d="M146 665V268H120V567Q120 611 122 633Q103 610 73 591T11 561V583Q41 592 75 615T124 665H146ZM527 660H557L90 0H60L527 660ZM451 17Q505 61 561 109Q617 155 647 196T678 278Q678 323 651 349T576 376Q528 376 499 347T468 267L444 274Q448 330 483 364T577 398Q636 398 670 365T704 278Q704 196 578 94L486 19V18H519H719V-4H451V17Z" glyph-name="onehalf" horiz-adv-x="749" unicode="½"/><glyph d="M205 670T237 641T269 564Q269 527 250 503T195 469V467Q231 463 254 437T278 373Q278 323 242 293T149 262Q97 262 63 286T16 354L39 366Q48 327 75 306T150 284Q195 284 223 308T252 374Q252 413 227 435T154 457H129V478H154Q195 478 218 502T242 562Q242 602 218 625T149 648Q110 648 85 629T51 577L28 587Q38 625 71 647T149 670Q205 670 237 641ZM641 660H671L204 0H174L641 660ZM758 112H679V-4H655V112H457V130L647 393H679V133H758V112ZM655 133V321Q655 353 656 369H654L622 322L483 133H655Z" glyph-name="threequarters" horiz-adv-x="777" unicode="¾"/><glyph d="M238 442T230 450T221 472Q221 485 229 493T251 502Q265 502 273 494T281 472Q281 459 273 451T251 442Q238 442 230 450ZM149 -174T95 -129T41 -5Q41 79 88 131T237 209V335H265V193Q191 172 149 147T88 85T69 -3Q69 -71 115 -110T237 -149Q406 -149 427 8L452 -5Q423 -174 236 -174Q149 -174 95 -129Z" glyph-name="questiondown" horiz-adv-x="482" unicode="¿"/><glyph d="M280 743L200 891H233L304 743H280ZM464 224H136L44 0H15L284 660H316L585 0H556L464 224ZM453 250L320 577L300 631L280 578L146 250H453Z" glyph-name="Agrave" horiz-adv-x="600" unicode="À"/><glyph d="M316 743H292L363 891H396L316 743ZM464 224H136L44 0H15L284 660H316L585 0H556L464 224ZM453 250L320 577L300 631L280 578L146 250H453Z" glyph-name="Aacute" horiz-adv-x="600" unicode="Á"/><glyph d="M201 741H174L283 888H317L427 741H399L300 868L201 741ZM464 224H136L44 0H15L284 660H316L585 0H556L464 224ZM453 250L320 577L300 631L280 578L146 250H453Z" glyph-name="Acircumflex" horiz-adv-x="600" unicode="Â"/><glyph d="M464 224H136L44 0H15L284 660H316L585 0H556L464 224ZM453 250L320 577L300 631L280 578L146 250H453ZM455 802T434 779T373 756Q346 756 329 765T293 793Q275 809 262 817T228 825Q198 825 184 809T162 755H138Q146 803 167 825T229 848Q256 848 273 839T309 811Q325 796 339 788T373 780Q403 780 417 796T439 849H463Q455 802 434 779Z" glyph-name="Atilde" horiz-adv-x="600" unicode="Ã"/><glyph d="M464 224H136L44 0H15L284 660H316L585 0H556L464 224ZM453 250L320 577L300 631L280 578L146 250H453ZM219 812T227 805T235 784Q235 771 227 763T206 755Q193 755 185 763T177 784Q177 797 185 804T206 812Q219 812 227 805ZM405 812T412 805T420 784Q420 771 413 763T392 755Q379 755 371 763T363 784Q363 797 371 804T392 812Q405 812 412 805Z" glyph-name="Adieresis" horiz-adv-x="600" unicode="Ä"/><glyph d="M464 224H136L44 0H15L277 643Q250 649 234 669T218 719Q218 755 240 776T300 798Q337 798 359 777T382 719Q382 690 366 670T323 643L585 0H556L464 224ZM241 693T257 677T300 661Q326 661 342 677T359 719Q359 746 343 762T300 778Q274 778 258 762T241 719Q241 693 257 677ZM453 250L320 577L300 631L280 578L146 250H453Z" glyph-name="Aring" horiz-adv-x="600" unicode="Å"/><glyph d="M864 25V0H440V246H182L29 0H-5L408 660H848V635H468V348H770V322H468V25H864ZM440 272V635H422L197 272H440Z" glyph-name="AE" horiz-adv-x="898" unicode="Æ"/><glyph d="M591 86T527 41T371 -10Q411 -32 428 -58T446 -116Q446 -155 420 -179T352 -204Q320 -204 297 -195T255 -164L267 -144Q284 -165 304 -174T350 -183Q381 -183 400 -165T420 -115Q420 -85 402 -62T334 -9Q251 -5 189 38T92 156T58 330Q58 433 94 510T198 628T353 670Q558 670 609 500L582 487Q534 645 354 645Q274 645 214 607T121 497T87 330Q87 234 120 163T214 54T354 15Q443 15 504 57T588 176L616 166Q591 86 527 41Z" glyph-name="Ccedilla" horiz-adv-x="656" unicode="Ç"/><glyph d="M320 743L240 891H273L344 743H320ZM559 25V0H101V660H543V635H129V349H459V324H129V25H559Z" glyph-name="Egrave" horiz-adv-x="593" unicode="È"/><glyph d="M329 743H304L376 891H408L329 743ZM559 25V0H101V660H543V635H129V349H459V324H129V25H559Z" glyph-name="Eacute" horiz-adv-x="593" unicode="É"/><glyph d="M222 741H195L304 888H338L448 741H420L321 868L222 741ZM559 25V0H101V660H543V635H129V349H459V324H129V25H559Z" glyph-name="Ecircumflex" horiz-adv-x="593" unicode="Ê"/><glyph d="M559 25V0H101V660H543V635H129V349H459V324H129V25H559ZM240 812T248 805T256 784Q256 771 248 763T227 755Q214 755 206 763T198 784Q198 797 206 804T227 812Q240 812 248 805ZM426 812T433 805T441 784Q441 771 434 763T413 755Q400 755 392 763T384 784Q384 797 392 804T413 812Q426 812 433 805Z" glyph-name="Edieresis" horiz-adv-x="593" unicode="Ë"/><glyph d="M119 743H95L15 891H48L119 743ZM129 0H101V660H129V0Z" glyph-name="Igrave" horiz-adv-x="229" unicode="Ì"/><glyph d="M210 891L130 743H106L177 891H210ZM129 0H101V660H129V0Z" glyph-name="Iacute" horiz-adv-x="229" unicode="Í"/><glyph d="M214 741L115 868L16 741H-12L98 888H132L242 741H214ZM129 0H101V660H129V0Z" glyph-name="Icircumflex" horiz-adv-x="229" unicode="Î"/><glyph d="M64 812T71 805T79 784Q79 771 72 763T51 755Q38 755 30 763T22 784Q22 797 30 804T51 812Q64 812 71 805ZM192 812T199 805T207 784Q207 771 200 763T179 755Q166 755 158 763T150 784Q150 797 158 804T179 812Q192 812 199 805ZM129 0H101V660H129V0Z" glyph-name="Idieresis" horiz-adv-x="229" unicode="Ï"/><glyph d="M475 660T558 578T641 338Q641 172 558 86T315 0H110V323H9V345H110V660H315Q475 660 558 578ZM462 25T537 105T613 338Q613 483 538 559T317 635H138V345H343V323H138V25H317Q462 25 537 105Z" glyph-name="Eth" horiz-adv-x="700" unicode="Ð"/><glyph d="M601 0H564L161 574L127 631H126L128 564V0H101V660H137L541 86L575 30L574 96V660H601V0ZM511 802T490 779T429 756Q402 756 385 765T349 793Q331 809 318 817T284 825Q254 825 240 809T218 755H194Q202 803 223 825T285 848Q312 848 329 839T365 811Q381 796 395 788T429 780Q459 780 473 796T495 849H519Q511 802 490 779Z" glyph-name="Ntilde" horiz-adv-x="702" unicode="Ñ"/><glyph d="M364 743H340L260 891H293L364 743ZM452 670T520 629T625 511T662 330Q662 226 626 150T521 32T360 -10Q268 -10 200 31T95 149T58 330Q58 434 95 510T200 628T360 670Q452 670 520 629ZM277 645T215 607T120 497T87 330Q87 234 120 163T215 54T360 15Q443 15 505 53T600 163T633 330Q633 426 600 497T505 606T360 645Q277 645 215 607Z" glyph-name="Ograve" horiz-adv-x="720" unicode="Ò"/><glyph d="M456 891L376 743H352L423 891H456ZM452 670T520 629T625 511T662 330Q662 226 626 150T521 32T360 -10Q268 -10 200 31T95 149T58 330Q58 434 95 510T200 628T360 670Q452 670 520 629ZM277 645T215 607T120 497T87 330Q87 234 120 163T215 54T360 15Q443 15 505 53T600 163T633 330Q633 426 600 497T505 606T360 645Q277 645 215 607Z" glyph-name="Oacute" horiz-adv-x="720" unicode="Ó"/><glyph d="M459 741L360 868L261 741H234L343 888H377L487 741H459ZM452 670T520 629T625 511T662 330Q662 226 626 150T521 32T360 -10Q268 -10 200 31T95 149T58 330Q58 434 95 510T200 628T360 670Q452 670 520 629ZM277 645T215 607T120 497T87 330Q87 234 120 163T215 54T360 15Q443 15 505 53T600 163T633 330Q633 426 600 497T505 606T360 645Q277 645 215 607Z" glyph-name="Ocircumflex" horiz-adv-x="720" unicode="Ô"/><glyph d="M452 670T520 629T625 511T662 330Q662 226 626 150T521 32T360 -10Q268 -10 200 31T95 149T58 330Q58 434 95 510T200 628T360 670Q452 670 520 629ZM277 645T215 607T120 497T87 330Q87 234 120 163T215 54T360 15Q443 15 505 53T600 163T633 330Q633 426 600 497T505 606T360 645Q277 645 215 607ZM515 802T494 779T433 756Q406 756 389 765T353 793Q335 809 322 817T288 825Q258 825 244 809T222 755H198Q206 803 227 825T289 848Q316 848 333 839T369 811Q385 796 399 788T433 780Q463 780 477 796T499 849H523Q515 802 494 779Z" glyph-name="Otilde" horiz-adv-x="720" unicode="Õ"/><glyph d="M452 670T520 629T625 511T662 330Q662 226 626 150T521 32T360 -10Q268 -10 200 31T95 149T58 330Q58 434 95 510T200 628T360 670Q452 670 520 629ZM277 645T215 607T120 497T87 330Q87 234 120 163T215 54T360 15Q443 15 505 53T600 163T633 330Q633 426 600 497T505 606T360 645Q277 645 215 607ZM280 812T288 805T296 784Q296 771 288 763T267 755Q254 755 246 763T238 784Q238 797 246 804T267 812Q280 812 288 805ZM466 812T473 805T481 784Q481 771 474 763T453 755Q440 755 432 763T424 784Q424 797 432 804T453 812Q466 812 473 805Z" glyph-name="Odieresis" horiz-adv-x="720" unicode="Ö"/><glyph d="M322 313L488 148L467 127L302 293L136 127L116 148L281 313L116 479L136 499L302 334L467 499L488 479L322 313Z" glyph-name="multiply" horiz-adv-x="604" unicode="×"/><glyph d="M612 549T637 482T662 330Q662 226 626 150T521 32T360 -10Q250 -10 174 49L116 -31H86L156 65Q108 110 83 177T58 330Q58 434 95 510T200 628T360 670Q473 670 548 610L605 689H634L566 594Q612 549 637 482ZM87 252T109 191T172 88L532 587Q461 645 360 645Q277 645 215 607T120 497T87 330Q87 252 109 191ZM443 15T505 53T600 163T633 330Q633 407 612 468T549 571L190 72Q258 15 360 15Q443 15 505 53Z" glyph-name="Oslash" horiz-adv-x="720" unicode="Ø"/><glyph d="M364 743H340L260 891H293L364 743ZM595 237Q595 118 529 54T344 -10Q225 -10 159 54T93 237V660H121V241Q121 132 179 74T344 15Q450 15 508 74T567 241V660H595V237Z" glyph-name="Ugrave" horiz-adv-x="688" unicode="Ù"/><glyph d="M439 891L359 743H335L406 891H439ZM595 237Q595 118 529 54T344 -10Q225 -10 159 54T93 237V660H121V241Q121 132 179 74T344 15Q450 15 508 74T567 241V660H595V237Z" glyph-name="Uacute" horiz-adv-x="688" unicode="Ú"/><glyph d="M443 741L344 868L245 741H218L327 888H361L471 741H443ZM595 237Q595 118 529 54T344 -10Q225 -10 159 54T93 237V660H121V241Q121 132 179 74T344 15Q450 15 508 74T567 241V660H595V237Z" glyph-name="Ucircumflex" horiz-adv-x="688" unicode="Û"/><glyph d="M595 237Q595 118 529 54T344 -10Q225 -10 159 54T93 237V660H121V241Q121 132 179 74T344 15Q450 15 508 74T567 241V660H595V237ZM263 812T271 805T279 784Q279 771 271 763T250 755Q237 755 229 763T221 784Q221 797 229 804T250 812Q263 812 271 805ZM449 812T456 805T464 784Q464 771 457 763T436 755Q423 755 415 763T407 784Q407 797 415 804T436 812Q449 812 456 805Z" glyph-name="Udieresis" horiz-adv-x="688" unicode="Ü"/><glyph d="M357 891L277 743H253L324 891H357ZM276 256V0H248V256L15 660H48L177 434L262 286L475 660H508L276 256Z" glyph-name="Yacute" horiz-adv-x="523" unicode="Ý"/><glyph d="M417 528T476 480T536 339Q536 247 477 199T300 151H129V0H101V660H129V528H300Q417 528 476 480ZM507 176T507 339Q507 503 309 503H129V176H309Q507 176 507 339Z" glyph-name="Thorn" horiz-adv-x="578" unicode="Þ"/><glyph d="M421 376T468 324T516 185Q516 98 464 44T324 -10Q290 -10 263 1T219 32L230 52Q265 14 324 14Q399 14 444 61T489 187Q489 275 437 320T295 366H252V391H295Q369 391 414 436T459 559Q459 631 417 670T298 710Q114 710 114 499V0H87V512Q87 621 139 678T299 735Q389 735 438 687T488 559Q488 484 445 434T332 381V380Q421 376 468 324Z" glyph-name="germandbls" horiz-adv-x="567" unicode="ß"/><glyph d="M509 14T521 22L519 -1Q504 -10 479 -10Q403 -10 403 86V87Q382 41 326 16T207 -10Q133 -10 91 22T48 111Q48 170 92 205T234 258L403 289V345Q403 412 364 449T252 486Q186 486 144 459T80 372L58 388Q103 510 252 510Q338 510 384 469T431 347V79Q431 47 444 31T483 14Q509 14 521 22ZM254 15T298 30T373 77T403 154V265L247 236Q157 220 117 190T77 111Q77 65 112 40T212 15Q254 15 298 30ZM265 583H241L151 734H182L265 583Z" glyph-name="agrave" horiz-adv-x="526" unicode="à"/><glyph d="M509 14T521 22L519 -1Q504 -10 479 -10Q403 -10 403 86V87Q382 41 326 16T207 -10Q133 -10 91 22T48 111Q48 170 92 205T234 258L403 289V345Q403 412 364 449T252 486Q186 486 144 459T80 372L58 388Q103 510 252 510Q338 510 384 469T431 347V79Q431 47 444 31T483 14Q509 14 521 22ZM254 15T298 30T373 77T403 154V265L247 236Q157 220 117 190T77 111Q77 65 112 40T212 15Q254 15 298 30ZM604 734L514 583H490L573 734H604Z" glyph-name="aacute" horiz-adv-x="526" unicode="á"/><glyph d="M509 14T521 22L519 -1Q504 -10 479 -10Q403 -10 403 86V87Q382 41 326 16T207 -10Q133 -10 91 22T48 111Q48 170 92 205T234 258L403 289V345Q403 412 364 449T252 486Q186 486 144 459T80 372L58 388Q103 510 252 510Q338 510 384 469T431 347V79Q431 47 444 31T483 14Q509 14 521 22ZM254 15T298 30T373 77T403 154V265L247 236Q157 220 117 190T77 111Q77 65 112 40T212 15Q254 15 298 30ZM602 582L504 707L407 582H380L488 728H520L629 582H602Z" glyph-name="acircumflex" horiz-adv-x="526" unicode="â"/><glyph d="M509 14T521 22L519 -1Q504 -10 479 -10Q403 -10 403 86V87Q382 41 326 16T207 -10Q133 -10 91 22T48 111Q48 170 92 205T234 258L403 289V345Q403 412 364 449T252 486Q186 486 144 459T80 372L58 388Q103 510 252 510Q338 510 384 469T431 347V79Q431 47 444 31T483 14Q509 14 521 22ZM254 15T298 30T373 77T403 154V265L247 236Q157 220 117 190T77 111Q77 65 112 40T212 15Q254 15 298 30ZM659 642T638 619T577 596Q550 596 533 605T497 633Q479 649 466 657T432 665Q402 665 388 649T366 595H342Q350 643 371 665T433 688Q460 688 477 679T513 651Q529 636 543 628T577 620Q607 620 621 636T643 689H667Q659 642 638 619Z" glyph-name="atilde" horiz-adv-x="526" unicode="ã"/><glyph d="M509 14T521 22L519 -1Q504 -10 479 -10Q403 -10 403 86V87Q382 41 326 16T207 -10Q133 -10 91 22T48 111Q48 170 92 205T234 258L403 289V345Q403 412 364 449T252 486Q186 486 144 459T80 372L58 388Q103 510 252 510Q338 510 384 469T431 347V79Q431 47 444 31T483 14Q509 14 521 22ZM254 15T298 30T373 77T403 154V265L247 236Q157 220 117 190T77 111Q77 65 112 40T212 15Q254 15 298 30ZM424 652T432 645T440 624Q440 611 432 603T411 595Q398 595 390 603T382 624Q382 637 390 644T411 652Q424 652 432 645ZM610 652T617 645T625 624Q625 611 618 603T597 595Q584 595 576 603T568 624Q568 637 576 644T597 652Q610 652 617 645Z" glyph-name="adieresis" horiz-adv-x="526" unicode="ä"/><glyph d="M509 14T521 22L519 -1Q504 -10 479 -10Q403 -10 403 86V87Q382 41 326 16T207 -10Q133 -10 91 22T48 111Q48 170 92 205T234 258L403 289V345Q403 412 364 449T252 486Q186 486 144 459T80 372L58 388Q103 510 252 510Q338 510 384 469T431 347V79Q431 47 444 31T483 14Q509 14 521 22ZM254 15T298 30T373 77T403 154V265L247 236Q157 220 117 190T77 111Q77 65 112 40T212 15Q254 15 298 30ZM541 749T566 725T592 662Q592 624 567 600T502 575Q463 575 438 599T412 662Q412 700 437 724T502 749Q541 749 566 725ZM474 729T455 710T435 662Q435 634 454 615T502 596Q530 596 549 615T569 662Q569 691 550 710T502 729Q474 729 455 710Z" glyph-name="aring" horiz-adv-x="526" unicode="å"/><glyph d="M430 250V235Q434 132 484 74T616 15Q744 15 787 119L810 107Q785 50 738 20T616 -10Q542 -10 491 30T419 146Q407 67 346 29T205 -10Q133 -10 91 21T48 111Q48 171 93 209T232 257L404 275V342Q404 411 365 448T252 486Q187 486 145 458T80 372L58 388Q104 510 252 510Q327 510 372 476T427 378Q451 441 499 475T614 510Q715 510 767 448T819 266V250H430ZM534 486T485 431T430 276H794Q788 486 614 486Q534 486 485 431ZM257 15T300 32T374 88T404 190V252L245 235Q157 226 117 194T77 111Q77 64 114 40T212 15Q257 15 300 32Z" glyph-name="ae" horiz-adv-x="869" unicode="æ"/><glyph d="M474 72T420 32T292 -10Q332 -33 349 -59T367 -116Q367 -155 341 -179T273 -204Q241 -204 218 -195T176 -164L188 -144Q205 -165 225 -174T271 -183Q302 -183 321 -165T341 -115Q341 -85 322 -61T253 -9Q157 1 105 68T53 250Q53 372 114 441T285 510Q360 510 412 475T484 374L459 361Q443 421 398 453T285 486Q189 486 135 423T81 250Q81 139 134 77T283 15Q352 15 402 50T463 146L488 137Q474 72 420 32Z" glyph-name="ccedilla" unicode="ç"/><glyph d="M492 235H81Q85 131 138 73T285 15Q346 15 394 42T465 119L488 107Q461 52 408 21T285 -10Q176 -10 115 59T53 250Q53 372 113 441T279 510Q380 510 436 441T493 252L492 235ZM188 486T136 427T81 261H467Q464 367 416 426T279 486Q188 486 136 427ZM292 583H268L178 734H209L292 583Z" glyph-name="egrave" horiz-adv-x="543" unicode="è"/><glyph d="M492 235H81Q85 131 138 73T285 15Q346 15 394 42T465 119L488 107Q461 52 408 21T285 -10Q176 -10 115 59T53 250Q53 372 113 441T279 510Q380 510 436 441T493 252L492 235ZM188 486T136 427T81 261H467Q464 367 416 426T279 486Q188 486 136 427ZM631 734L541 583H517L600 734H631Z" glyph-name="eacute" horiz-adv-x="543" unicode="é"/><glyph d="M492 235H81Q85 131 138 73T285 15Q346 15 394 42T465 119L488 107Q461 52 408 21T285 -10Q176 -10 115 59T53 250Q53 372 113 441T279 510Q380 510 436 441T493 252L492 235ZM188 486T136 427T81 261H467Q464 367 416 426T279 486Q188 486 136 427ZM373 582L275 707L178 582H151L259 728H291L400 582H373Z" glyph-name="ecircumflex" horiz-adv-x="543" unicode="ê"/><glyph d="M492 235H81Q85 131 138 73T285 15Q346 15 394 42T465 119L488 107Q461 52 408 21T285 -10Q176 -10 115 59T53 250Q53 372 113 441T279 510Q380 510 436 441T493 252L492 235ZM188 486T136 427T81 261H467Q464 367 416 426T279 486Q188 486 136 427ZM195 652T203 645T211 624Q211 611 203 603T182 595Q169 595 161 603T153 624Q153 637 161 644T182 652Q195 652 203 645ZM381 652T388 645T396 624Q396 611 389 603T368 595Q355 595 347 603T339 624Q339 637 347 644T368 652Q381 652 388 645Z" glyph-name="edieresis" horiz-adv-x="543" unicode="ë"/><glyph d="M115 0H87V500H115V0ZM117 583H93L3 734H34L117 583Z" glyph-name="igrave" horiz-adv-x="201" unicode="ì"/><glyph d="M115 0H87V500H115V0ZM200 734L110 583H86L169 734H200Z" glyph-name="iacute" horiz-adv-x="201" unicode="í"/><glyph d="M115 0H87V500H115V0ZM198 582L100 707L3 582H-24L84 728H116L225 582H198Z" glyph-name="icircumflex" horiz-adv-x="201" unicode="î"/><glyph d="M32 595T24 603T16 624Q16 637 24 644T45 652Q58 652 66 645T74 624Q74 611 66 603T45 595Q32 595 24 603ZM143 595T135 603T127 624Q127 637 135 644T156 652Q169 652 177 645T185 624Q185 611 177 603T156 595Q143 595 135 603ZM115 0H87V500H115V0Z" glyph-name="idieresis" horiz-adv-x="201" unicode="ï"/><glyph d="M425 613Q518 488 518 284Q518 140 458 65T289 -10Q180 -10 117 57T53 237Q53 312 82 368T162 454T282 485Q361 485 414 451T491 353Q475 508 398 607L222 569L217 588L384 624Q325 692 233 730H279Q361 690 411 629L527 656L533 636L425 613ZM383 15T436 78T492 253Q492 309 468 356T397 432T284 461Q192 461 137 400T82 237Q82 135 138 75T290 15Q383 15 436 78Z" glyph-name="eth" horiz-adv-x="585" unicode="ð"/><glyph d="M401 510T451 462T502 327V0H474V320Q474 400 430 443T310 486Q256 486 212 461T141 392T115 294V0H87V500H113V380Q134 440 188 475T314 510Q401 510 451 462ZM453 642T432 619T371 596Q344 596 327 605T291 633Q273 649 260 657T226 665Q196 665 182 649T160 595H136Q144 643 165 665T227 688Q254 688 271 679T307 651Q323 636 337 628T371 620Q401 620 415 636T437 689H461Q453 642 432 619Z" glyph-name="ntilde" horiz-adv-x="582" unicode="ñ"/><glyph d="M398 510T460 441T523 250Q523 128 461 59T289 -10Q179 -10 116 59T53 250Q53 371 116 440T289 510Q398 510 460 441ZM192 486T137 423T81 250Q81 140 136 77T289 14Q385 14 440 77T495 250Q495 360 440 423T289 486Q192 486 137 423ZM305 583H281L191 734H222L305 583Z" glyph-name="ograve" horiz-adv-x="576" unicode="ò"/><glyph d="M398 510T460 441T523 250Q523 128 461 59T289 -10Q179 -10 116 59T53 250Q53 371 116 440T289 510Q398 510 460 441ZM192 486T137 423T81 250Q81 140 136 77T289 14Q385 14 440 77T495 250Q495 360 440 423T289 486Q192 486 137 423ZM644 734L554 583H530L613 734H644Z" glyph-name="oacute" horiz-adv-x="576" unicode="ó"/><glyph d="M398 510T460 441T523 250Q523 128 461 59T289 -10Q179 -10 116 59T53 250Q53 371 116 440T289 510Q398 510 460 441ZM192 486T137 423T81 250Q81 140 136 77T289 14Q385 14 440 77T495 250Q495 360 440 423T289 486Q192 486 137 423ZM386 582L288 707L191 582H164L272 728H304L413 582H386Z" glyph-name="ocircumflex" horiz-adv-x="576" unicode="ô"/><glyph d="M398 510T460 441T523 250Q523 128 461 59T289 -10Q179 -10 116 59T53 250Q53 371 116 440T289 510Q398 510 460 441ZM192 486T137 423T81 250Q81 140 136 77T289 14Q385 14 440 77T495 250Q495 360 440 423T289 486Q192 486 137 423ZM444 642T423 619T362 596Q335 596 318 605T282 633Q264 649 251 657T217 665Q187 665 173 649T151 595H127Q135 643 156 665T218 688Q245 688 262 679T298 651Q314 636 328 628T362 620Q392 620 406 636T428 689H452Q444 642 423 619Z" glyph-name="otilde" horiz-adv-x="576" unicode="õ"/><glyph d="M398 510T460 441T523 250Q523 128 461 59T289 -10Q179 -10 116 59T53 250Q53 371 116 440T289 510Q398 510 460 441ZM192 486T137 423T81 250Q81 140 136 77T289 14Q385 14 440 77T495 250Q495 360 440 423T289 486Q192 486 137 423ZM208 652T216 645T224 624Q224 611 216 603T195 595Q182 595 174 603T166 624Q166 637 174 644T195 652Q208 652 216 645ZM394 652T401 645T409 624Q409 611 402 603T381 595Q368 595 360 603T352 624Q352 637 360 644T381 652Q394 652 401 645Z" glyph-name="odieresis" horiz-adv-x="576" unicode="ö"/><glyph d="M316 534T324 526T332 504Q332 491 324 483T302 474Q289 474 281 482T272 504Q272 518 280 526T302 534Q316 534 324 526ZM530 303H74V329H530V303ZM316 160T324 152T332 130Q332 117 324 109T302 100Q289 100 281 108T272 130Q272 144 280 152T302 160Q316 160 324 152Z" glyph-name="divide" horiz-adv-x="604" unicode="÷"/><glyph d="M381 510T441 459L495 529H525L458 444Q523 376 523 250Q523 128 461 59T289 -10Q200 -10 140 37L86 -31H56L122 53Q53 124 53 250Q53 371 116 440T289 510Q381 510 441 459ZM140 75L167 111L425 438Q371 486 289 486Q192 486 137 423T81 250Q81 136 139 75H140ZM385 14T440 77T495 250Q495 359 441 422H440L419 394L156 58Q209 14 289 14Q385 14 440 77Z" glyph-name="oslash" horiz-adv-x="577" unicode="ø"/><glyph d="M488 500V0H462L461 119Q440 60 386 25T257 -10Q175 -10 128 36T81 168V500H109V174Q109 96 148 56T262 15Q325 15 369 43T437 115T460 202V500H488ZM302 583H278L188 734H219L302 583Z" glyph-name="ugrave" horiz-adv-x="574" unicode="ù"/><glyph d="M488 500V0H462L461 119Q440 60 386 25T257 -10Q175 -10 128 36T81 168V500H109V174Q109 96 148 56T262 15Q325 15 369 43T437 115T460 202V500H488ZM641 734L551 583H527L610 734H641Z" glyph-name="uacute" horiz-adv-x="574" unicode="ú"/><glyph d="M488 500V0H462L461 119Q440 60 386 25T257 -10Q175 -10 128 36T81 168V500H109V174Q109 96 148 56T262 15Q325 15 369 43T437 115T460 202V500H488ZM383 582L285 707L188 582H161L269 728H301L410 582H383Z" glyph-name="ucircumflex" horiz-adv-x="574" unicode="û"/><glyph d="M488 500V0H462L461 119Q440 60 386 25T257 -10Q175 -10 128 36T81 168V500H109V174Q109 96 148 56T262 15Q325 15 369 43T437 115T460 202V500H488ZM205 652T213 645T221 624Q221 611 213 603T192 595Q179 595 171 603T163 624Q163 637 171 644T192 652Q205 652 213 645ZM391 652T398 645T406 624Q406 611 399 603T378 595Q365 595 357 603T349 624Q349 637 357 644T378 652Q391 652 398 645Z" glyph-name="udieresis" horiz-adv-x="574" unicode="ü"/><glyph d="M224 -98Q197 -163 165 -189T84 -215Q24 -215 0 -181L12 -158Q34 -191 84 -191Q122 -191 149 -170T199 -92L236 -1L24 500H56L229 81L250 31L270 84L439 500H470L224 -98ZM605 734L515 583H491L574 734H605Z" glyph-name="yacute" horiz-adv-x="491" unicode="ý"/><glyph d="M418 510T479 441T540 250Q540 128 479 59T311 -10Q238 -10 187 26T115 129V-210H87V730H115V372Q136 437 187 473T311 510Q418 510 479 441ZM404 15T458 77T512 250Q512 361 458 423T307 486Q219 486 167 424T115 254V246Q115 139 167 77T307 15Q404 15 458 77Z" glyph-name="thorn" horiz-adv-x="593" unicode="þ"/><glyph d="M224 -98Q197 -163 165 -189T84 -215Q24 -215 0 -181L12 -158Q34 -191 84 -191Q122 -191 149 -170T199 -92L236 -1L24 500H56L229 81L250 31L270 84L439 500H470L224 -98ZM425 652T433 645T441 624Q441 611 433 603T412 595Q399 595 391 603T383 624Q383 637 391 644T412 652Q425 652 433 645ZM611 652T618 645T626 624Q626 611 619 603T598 595Q585 595 577 603T569 624Q569 637 577 644T598 652Q611 652 618 645Z" glyph-name="ydieresis" horiz-adv-x="491" unicode="ÿ"/><glyph d="M549 255H71V282H549V255Z" glyph-name="endash" horiz-adv-x="619" unicode="–"/><glyph d="M882 255H71V282H882V255Z" glyph-name="emdash" horiz-adv-x="953" unicode="—"/><glyph d="M75 523T65 538T54 578Q54 613 71 644T122 692L140 677Q112 666 94 640T75 588Q75 583 77 573L79 572Q85 584 98 584Q109 584 117 576T126 554Q126 541 117 532T95 523Q75 523 65 538Z" glyph-name="quoteleft" horiz-adv-x="188" unicode="‘"/><glyph d="M118 690T128 675T139 636Q139 601 122 570T71 522L53 536Q81 548 99 574T118 626Q118 631 116 641H114Q109 630 95 630Q84 630 76 638T68 660Q68 672 76 681T99 690Q118 690 128 675Z" glyph-name="quoteright" horiz-adv-x="188" unicode="’"/><glyph d="M114 54T124 39T135 -1Q135 -35 117 -66T67 -114L49 -100Q76 -89 95 -62T114 -10Q114 -5 112 5H110Q104 -6 91 -6Q79 -6 71 2T63 24Q63 36 72 45T94 54Q114 54 124 39Z" glyph-name="quotesinglbase" horiz-adv-x="192" unicode="‚"/><glyph d="M75 523T65 538T54 578Q54 613 71 644T122 692L140 677Q112 666 94 640T75 588Q75 583 77 573L79 572Q85 584 98 584Q109 584 117 576T126 554Q126 541 117 532T95 523Q75 523 65 538ZM190 523T180 538T169 578Q169 613 186 644T237 692L255 677Q227 666 209 640T190 588Q190 583 192 573L194 572Q200 584 213 584Q224 584 232 576T241 554Q241 541 232 532T210 523Q190 523 180 538Z" glyph-name="quotedblleft" horiz-adv-x="303" unicode="“"/><glyph d="M118 690T128 675T139 636Q139 601 122 570T71 522L53 536Q81 548 99 574T118 626Q118 631 116 641H114Q109 630 95 630Q84 630 76 638T68 660Q68 672 76 681T99 690Q118 690 128 675ZM233 690T243 675T254 636Q254 601 237 570T186 522L168 536Q196 548 214 574T233 626Q233 631 231 641H229Q224 630 210 630Q199 630 191 638T183 660Q183 672 191 681T214 690Q233 690 243 675Z" glyph-name="quotedblright" horiz-adv-x="302" unicode="”"/><glyph d="M114 54T124 39T135 -1Q135 -35 117 -66T67 -114L49 -100Q76 -89 95 -62T114 -10Q114 -5 112 5H110Q104 -6 91 -6Q79 -6 71 2T63 24Q63 36 72 45T94 54Q114 54 124 39ZM229 54T239 39T250 -1Q250 -35 232 -66T182 -114L164 -100Q191 -89 210 -62T229 -10Q229 -5 227 5H225Q219 -6 206 -6Q194 -6 186 2T178 24Q178 36 187 45T209 54Q229 54 239 39Z" glyph-name="quotedblbase" horiz-adv-x="307" unicode="„"/><glyph d="M246 410T266 390T287 339Q287 308 267 288T215 267Q184 267 164 287T143 339Q143 370 163 390T215 410Q246 410 266 390Z" glyph-name="bullet" horiz-adv-x="430" unicode="•"/><glyph d="M79 265L221 69H188L47 265L188 461H221L79 265Z" glyph-name="guilsinglleft" horiz-adv-x="271" unicode="‹"/><glyph d="M84 461L224 265L84 69H50L192 265L50 461H84Z" glyph-name="guilsinglright" horiz-adv-x="271" unicode="›"/></font>
</defs>
</svg>
