<?xml version="1.0" standalone="no"?>
<!DOCTYPE svg PUBLIC "-//W3C//DTD SVG 1.1//EN" "http://www.w3.org/Graphics/SVG/1.1/DTD/svg11.dtd">
<svg xmlns="http://www.w3.org/2000/svg">
<defs >
<font id="WorkSans" horiz-adv-x="550" ><font-face
    font-family="Work Sans Light"
    units-per-em="1000"
    panose-1="0 0 4 0 0 0 0 0 0 0"
    ascent="930"
    descent="-243"
    alphabetic="0" />
<glyph unicode=" " glyph-name="space" horiz-adv-x="313" />
<glyph unicode="!" glyph-name="exclam" horiz-adv-x="230" d="M141 340L135 190H95L89 340V660H141V340ZM135 82T147 70T160 37Q160 17 148 5T115 -8Q95 -8 83 4T70 37Q70 57 82 69T115 82Q135 82 147 70Z" />
<glyph unicode="&quot;" glyph-name="quotedbl" horiz-adv-x="327" d="M248 480H208V685H262L248 480ZM115 480H75V685H129L115 480Z" />
<glyph unicode="#" glyph-name="numbersign" horiz-adv-x="636" d="M466 429L436 238H568V199H429L398 0H354L386 199H205L174 0H130L162 199H31V238H168L198 429H68V468H205L235 660H279L248 468H429L459 660H503L472 468H605V429H466ZM423 429H242L212 238H392L423
429Z" />
<glyph unicode="$" glyph-name="dollar" horiz-adv-x="599" d="M285 1Q196 6 135 50T52 171L98 195Q111 131 162 91T285 43V309Q217 323 174 339T101 388T72 477Q72 525 97 566T171 632T285 659V760H328V659Q406 655 456 620T535 516L495 484Q473 548 433 579T328
616V344Q396 330 439 314T511 265T540 175Q540 99 483 52T328 1V-100H285V1ZM285 617Q208 614 164 577T120 481Q120 441 142 416T198 378T285 353V617ZM402 45T447 78T493 171Q493 211 471 236T415 275T328 300V42Q402 45 447 78Z" />
<glyph unicode="%" glyph-name="percent" horiz-adv-x="809" d="M260 665T299 616T338 490Q338 413 299 365T189 316Q119 316 80 365T40 490Q40 567 79 616T189 665Q260 665 299 616ZM596 660H645L212 0H163L596 660ZM138 625T112 588T85 490Q85 430 111 393T189
356Q240 356 266 393T293 490Q293 550 267 587T189 625Q138 625 112 588ZM690 344T729 295T769 169Q769 93 730 44T620 -5Q549 -5 510 44T470 169Q470 246 509 295T620 344Q690 344 729 295ZM569 304T542 267T515 169Q515 109 542 72T620 35Q671 35 697 72T724
169Q724 230 698 267T620 304Q569 304 542 267Z" />
<glyph unicode="&amp;" glyph-name="ampersand" horiz-adv-x="599" d="M514 61T542 45T605 28L593 -10Q556 -10 524 8T446 75Q369 -10 247 -10Q189 -10 144 10T73 67T47 151Q47 216 87 264T214 361Q167 422 150 456T132 528Q132 587 172 627T280 668Q343 668 383
636T424 541Q424 484 394 441T279 349Q321 294 347 261Q407 185 444 140Q471 183 484 239T496 360L537 356Q539 287 523 223T472 108Q514 61 542 45ZM233 625T206 598T179 529Q179 498 192 471T253 382Q328 422 353 458T379 540Q379 581 353 603T279 625Q233 625
206 598ZM298 31T342 50T418 106Q367 166 314 233L240 327Q160 281 127 244T94 154Q94 99 137 65T244 31Q298 31 342 50Z" />
<glyph unicode="&apos;" glyph-name="quotesingle" horiz-adv-x="194" d="M115 480H75V685H129L115 480Z" />
<glyph unicode="(" glyph-name="parenleft" horiz-adv-x="305" d="M285 717Q191 634 150 531T108 283Q108 139 149 36T285 -151L257 -180Q156 -94 107 20T57 283Q57 430 106 545T257 746L285 717Z" />
<glyph unicode=")" glyph-name="parenright" horiz-adv-x="305" d="M148 660T197 545T247 283Q247 136 198 21T48 -180L20 -151Q114 -68 155 35T197 283Q197 427 156 530T20 717L48 746Q148 660 197 545Z" />
<glyph unicode="*" glyph-name="asterisk" horiz-adv-x="543" d="M347 436L421 332L388 308L312 410L271 479L231 410L155 308L122 332L196 436L248 496L170 514L50 554L62 593L183 555L257 524L250 603V730H293V603L286 524L359 555L481 593L493 554L373 514L295
496L347 436Z" />
<glyph unicode="+" glyph-name="plus" horiz-adv-x="604" d="M540 293H326V73H279V293H64V339H279V555H326V339H540V293Z" />
<glyph unicode="," glyph-name="comma" horiz-adv-x="220" d="M137 82T151 62T166 9Q166 -33 144 -70T80 -128L52 -103Q87 -90 109 -59T130 1L127 2Q120 -8 104 -8Q89 -8 77 4T65 36Q65 55 78 68T111 82Q137 82 151 62Z" />
<glyph unicode="-" glyph-name="hyphen" horiz-adv-x="466" d="M387 240H80V291H387V240Z" />
<glyph unicode="." glyph-name="period" horiz-adv-x="220" d="M130 82T142 70T155 37Q155 17 143 5T110 -8Q90 -8 78 4T65 37Q65 57 77 69T110 82Q130 82 142 70Z" />
<glyph unicode="/" glyph-name="slash" horiz-adv-x="396" d="M79 -70H31L316 730H364L79 -70Z" />
<glyph unicode="0" glyph-name="zero" horiz-adv-x="607" d="M187 -10T125 77T63 330Q63 495 125 582T304 670Q420 670 482 583T544 330Q544 165 482 78T304 -10Q187 -10 125 77ZM396 35T444 111T493 330Q493 473 445 549T304 625Q212 625 163 549T114 330Q114
187 163 111T304 35Q396 35 444 111Z" />
<glyph unicode="1" glyph-name="one" horiz-adv-x="365" d="M268 660V0H218V500Q218 529 220 591Q187 553 141 525T46 483L33 528Q81 540 139 579T223 660H268Z" />
<glyph unicode="2" glyph-name="two" horiz-adv-x="560" d="M65 41Q206 151 281 219T394 347T433 469Q433 540 390 582T271 624Q194 624 147 576T94 444L50 469Q59 561 117 615T272 670Q370 670 427 616T485 469Q485 403 448 341T338 209T138 46V45L204 46H506V0H65V41Z" />
<glyph unicode="3" glyph-name="three" horiz-adv-x="554" d="M368 670T420 622T473 498Q473 432 438 386T347 334V333Q410 331 449 286T489 174Q489 120 461 79T384 14T271 -10Q185 -10 129 30T48 145L94 170Q129 36 274 36Q347 36 392 75T437 178Q437 242 397
276T277 310H240V356H277Q347 356 384 392T421 490Q421 554 383 589T275 624Q214 624 174 594T118 509L71 532Q94 596 148 633T275 670Q368 670 420 622Z" />
<glyph unicode="4" glyph-name="four" horiz-adv-x="582" d="M546 188H419V0H369V188H41V226L355 660H419V231H546V188ZM95 231H369V533L371 618H369Q350 585 314 531L95 231Z" />
<glyph unicode="5" glyph-name="five" horiz-adv-x="560" d="M357 412T404 386T478 313T504 203Q504 106 445 48T285 -10Q102 -10 57 145L105 169Q134 36 283 36Q359 36 405 81T452 201Q451 277 407 321T289 366Q172 366 119 292H75L111 660H476V614H153L127 358L125
345H126Q184 412 296 412Q357 412 404 386Z" />
<glyph unicode="6" glyph-name="six" horiz-adv-x="581" d="M391 670T437 638T509 540L463 518Q448 567 411 595T314 624Q248 624 202 582T133 470T110 316Q110 289 115 249H118Q122 298 151 334T222 388T310 407Q409 407 466 351T524 198Q524 103 465 47T306
-10Q189 -10 127 80T64 330Q64 439 96 515T186 631T317 670Q391 670 437 638ZM258 360T221 338T162 280T141 200Q141 128 186 83T305 37Q383 37 427 81T472 200Q472 273 428 316T307 360Q258 360 221 338Z" />
<glyph unicode="7" glyph-name="seven" horiz-adv-x="530" d="M507 660V614Q385 485 325 335T256 0H204Q220 363 452 614H32V660H507Z" />
<glyph unicode="8" glyph-name="eight" horiz-adv-x="591" d="M388 669T444 624T500 502Q500 445 469 405T383 348V347Q450 330 489 284T529 174Q529 119 500 78T418 13T295 -10Q227 -10 174 13T92 77T62 174Q62 238 101 284T208 347V348Q153 365 122 405T91 502Q91
578 146 623T295 669Q388 669 444 624ZM225 623T184 589T143 497Q143 439 184 405T295 370Q364 370 406 404T448 497Q448 555 407 589T295 623Q225 623 184 589ZM377 36T427 75T477 178Q477 243 427 283T295 323Q214 323 164 283T114 178Q114 114 163 75T295 36Q377
36 427 75Z" />
<glyph unicode="9" glyph-name="nine" horiz-adv-x="596" d="M403 670T466 579T530 330Q530 164 466 77T286 -10Q200 -10 144 28T66 135L116 161Q130 102 170 69T285 36Q391 36 438 121T485 346Q485 371 479 415H476Q472 362 443 326T370 271T280 253Q182 253
123 309T64 462Q64 557 124 613T285 670Q403 670 466 579ZM207 623T162 579T116 460Q116 387 161 344T284 300Q333 300 371 322T431 380T453 460Q453 532 407 577T286 623Q207 623 162 579Z" />
<glyph unicode=":" glyph-name="colon" horiz-adv-x="247" d="M144 505T156 493T169 460Q169 440 157 428T124 415Q104 415 92 427T79 460Q79 480 91 492T124 505Q144 505 156 493ZM144 82T156 70T169 37Q169 17 157 5T124 -8Q104 -8 92 4T79 37Q79 57 91 69T124
82Q144 82 156 70Z" />
<glyph unicode=";" glyph-name="semicolon" horiz-adv-x="247" d="M108 416T96 428T83 460Q83 480 95 492T128 505Q148 505 160 493T173 460Q173 440 161 428T128 416Q108 416 96 428ZM151 82T165 62T180 9Q180 -33 158 -70T94 -128L67 -103Q101 -90 123 -59T144
1L141 2Q134 -8 118 -8Q103 -8 91 4T79 36Q79 55 92 68T125 82Q151 82 165 62Z" />
<glyph unicode="&lt;" glyph-name="less" horiz-adv-x="604" d="M540 504L120 300L540 95V42L80 270V329L540 557V504Z" />
<glyph unicode="=" glyph-name="equal" horiz-adv-x="604" d="M529 386H75V432H529V386ZM529 184H75V230H529V184Z" />
<glyph unicode="&gt;" glyph-name="greater" horiz-adv-x="604" d="M524 329V270L64 42V95L484 300L64 504V557L524 329Z" />
<glyph unicode="?" glyph-name="question" horiz-adv-x="510" d="M350 670T407 624T464 500Q464 339 271 299V181H220V326Q325 350 368 388T412 495Q412 555 370 589T255 624Q177 624 133 586T79 476L35 500Q50 580 106 625T258 670Q350 670 407 624ZM265 82T277
70T289 37Q289 17 277 5T245 -8Q225 -8 213 4T200 37Q200 57 212 69T245 82Q265 82 277 70Z" />
<glyph unicode="@" glyph-name="at" horiz-adv-x="966" d="M631 665T723 610T858 461T901 253Q901 132 859 63T745 -7Q646 -7 638 112Q614 57 567 26T453 -5Q397 -5 353 22T284 99T259 218Q259 294 289 351T371 439T485 470Q553 470 595 440T655 356L666 458H700L679
141Q674 29 753 29Q805 29 833 87T861 253Q861 359 822 443T700 577T492 627Q374 627 286 578T151 439T103 228Q103 110 152 24T288 -109T487 -155Q559 -155 615 -136T712 -83L735 -114Q631 -193 487 -193Q360 -193 263 -142T113 5T60 228Q60 358 113 457T265 610T492
665Q631 665 723 610ZM405 432T355 375T304 220Q304 134 347 84T466 34Q539 34 587 83T641 213L644 253Q648 332 609 382T490 432Q405 432 355 375Z" />
<glyph unicode="A" glyph-name="A" horiz-adv-x="625" d="M470 207H154L72 0H19L283 660H342L606 0H553L470 207ZM452 253L337 541L313 611H312L288 543L173 253H452Z" />
<glyph unicode="B" glyph-name="B" horiz-adv-x="632" d="M104 660H337Q445 660 498 615T552 485Q552 427 521 387T431 335V334Q495 324 532 282T570 178Q570 93 510 47T337 0H104V660ZM338 356Q499 356 499 485Q499 614 338 614H154V356H338ZM347 46Q431 46 474
80T517 178Q517 243 474 276T347 310H154V46H347Z" />
<glyph unicode="C" glyph-name="C" horiz-adv-x="669" d="M598 83T529 37T362 -10Q272 -10 204 31T99 150T62 330Q62 433 99 510T204 628T361 670Q559 670 617 507L568 484Q545 554 495 589T364 624Q290 624 234 589T146 487T115 330Q115 240 145 174T231 72T362
36Q442 36 498 75T576 186L626 167Q598 83 529 37Z" />
<glyph unicode="D" glyph-name="D" horiz-adv-x="704" d="M470 660T555 577T641 335Q641 173 556 87T312 0H104V660H312Q470 660 555 577ZM448 46T518 120T589 335Q589 469 519 541T316 614H154V46H316Q448 46 518 120Z" />
<glyph unicode="E" glyph-name="E" horiz-adv-x="612" d="M571 46V0H104V660H555V614H154V359H471V312H154V46H571Z" />
<glyph unicode="F" glyph-name="F" horiz-adv-x="584" d="M154 614V359H471V312H154V0H104V660H554V614H154Z" />
<glyph unicode="G" glyph-name="G" horiz-adv-x="702" d="M629 323V0H589L587 115Q560 55 503 23T360 -10Q270 -10 203 31T99 150T62 330Q62 433 99 510T205 628T363 670Q464 670 528 630T624 508L578 484Q555 553 501 588T363 624Q289 624 233 589T146 487T115
330Q115 193 180 115T362 36Q434 36 484 64T558 139T582 239V276H358V323H629Z" />
<glyph unicode="H" glyph-name="H" horiz-adv-x="716" d="M612 660V0H562V312H154V0H104V660H154V359H562V660H612Z" />
<glyph unicode="I" glyph-name="I" horiz-adv-x="258" d="M154 0H104V660H154V0Z" />
<glyph unicode="J" glyph-name="J" horiz-adv-x="534" d="M437 218Q437 111 382 51T227 -10Q136 -10 86 36T36 163Q36 189 40 210L87 221Q84 197 84 175Q84 36 226 36Q310 36 348 85T387 229V660H437V218Z" />
<glyph unicode="K" glyph-name="K" horiz-adv-x="610" d="M286 356L154 222V0H104V660H154V290L516 660H582L321 393L589 0H528L286 356Z" />
<glyph unicode="L" glyph-name="L" horiz-adv-x="572" d="M550 46V0H104V660H154V46H550Z" />
<glyph unicode="M" glyph-name="M" horiz-adv-x="822" d="M718 0H670V492L676 612H675L434 0H388L147 612H146L152 492V0H104V660H179L378 160L411 59H412L444 159L643 660H718V0Z" />
<glyph unicode="N" glyph-name="N" horiz-adv-x="715" d="M611 0H549L199 518L150 606H149L152 523V0H104V660H167L516 143L566 54L564 137V660H611V0Z" />
<glyph unicode="O" glyph-name="O" horiz-adv-x="732" d="M459 670T527 629T633 511T670 330Q670 226 633 150T528 32T366 -10Q273 -10 205 31T99 149T62 330Q62 434 99 510T204 628T366 670Q459 670 527 629ZM289 624T233 589T146 487T115 330Q115 240 145 174T232
72T366 36Q443 36 500 71T587 173T618 330Q618 420 588 486T500 588T366 624Q289 624 233 589Z" />
<glyph unicode="P" glyph-name="P" horiz-adv-x="587" d="M426 660T486 609T547 467Q547 377 487 325T323 273H154V0H104V660H323Q426 660 486 609ZM403 320T448 358T494 467Q494 537 449 575T317 614H154V320H317Q403 320 448 358Z" />
<glyph unicode="Q" glyph-name="Q" horiz-adv-x="732" d="M570 -145T599 -136T647 -108L665 -154Q644 -173 609 -184T535 -195Q456 -195 404 -149T346 -9Q259 -5 195 37T97 155T62 330Q62 434 99 510T204 628T366 670Q459 670 527 629T633 511T670 330Q670 231
636 157T540 39T391 -9Q402 -145 536 -145Q570 -145 599 -136ZM115 240T145 174T232 72T366 36Q443 36 500 71T587 173T618 330Q618 420 588 486T500 588T366 624Q289 624 233 589T146 487T115 330Q115 240 145 174Z" />
<glyph unicode="R" glyph-name="R" horiz-adv-x="640" d="M541 0L352 286H349H154V0H104V660H349Q448 660 506 610T565 473Q565 401 523 354T408 292L600 0H541ZM154 333H348Q428 333 470 369T513 473Q513 541 471 577T348 614H154V333Z" />
<glyph unicode="S" glyph-name="S" horiz-adv-x="619" d="M494 670T557 524L514 489Q489 560 440 592T309 624Q251 624 208 606T143 557T120 487Q120 449 139 424T203 382T329 350Q458 328 512 286T566 170Q566 117 535 76T448 13T318 -10Q214 -10 143 31T45 148L89
182Q109 111 169 74T319 36Q405 36 459 71T514 167Q514 220 470 251T315 301Q222 317 168 340T91 397T67 482Q67 533 96 576T180 644T308 670Q494 670 557 524Z" />
<glyph unicode="T" glyph-name="T" horiz-adv-x="576" d="M554 614H313V0H263V614H22V660H554V614Z" />
<glyph unicode="U" glyph-name="U" horiz-adv-x="701" d="M605 241Q605 119 539 55T351 -10Q229 -10 163 54T96 241V660H146V251Q146 145 198 91T351 36Q451 36 503 90T555 251V660H605V241Z" />
<glyph unicode="V" glyph-name="V" horiz-adv-x="614" d="M337 0H278L23 660H77L272 149L307 47L342 149L538 660H591L337 0Z" />
<glyph unicode="W" glyph-name="W" horiz-adv-x="937" d="M298 0H236L30 660H84L267 41L440 660H498L671 40L856 660H907L701 0H639L506 463L469 606H468L431 463L298 0Z" />
<glyph unicode="X" glyph-name="X" horiz-adv-x="566" d="M482 0L281 299L78 0H19L255 339L39 660H99L287 380L477 660H533L314 340L541 0H482Z" />
<glyph unicode="Y" glyph-name="Y" horiz-adv-x="544" d="M297 257V0H247V257L13 660H72L272 309L472 660H531L297 257Z" />
<glyph unicode="Z" glyph-name="Z" horiz-adv-x="593" d="M553 46V0H43V44L478 614H52V660H537V616L102 46H553Z" />
<glyph unicode="[" glyph-name="bracketleft" horiz-adv-x="311" d="M129 686V-124H288V-168H82V730H288V686H129Z" />
<glyph unicode="\" glyph-name="backslash" horiz-adv-x="396" d="M80 730L365 -70H317L32 730H80Z" />
<glyph unicode="]" glyph-name="bracketright" horiz-adv-x="311" d="M229 -168H23V-124H182V686H23V730H229V-168Z" />
<glyph unicode="^" glyph-name="asciicircum" horiz-adv-x="547" d="M464 355L274 687L84 355H32L249 730H298L516 355H464Z" />
<glyph unicode="_" glyph-name="underscore" horiz-adv-x="520" d="M520 -143H0V-97H520V-143Z" />
<glyph unicode="`" glyph-name="grave" horiz-adv-x="523" d="M275 583H233L140 741H194L275 583Z" />
<glyph unicode="a" glyph-name="a" horiz-adv-x="543" d="M516 33T530 40L527 0Q509 -10 478 -10Q443 -10 421 9T396 75Q373 35 322 13T215 -10Q141 -10 97 23T52 117Q52 233 242 267L395 294V338Q395 398 360 432T259 466Q140 466 99 360L61 388Q83 447 134 478T259
510Q346 510 395 468T445 344V86Q445 33 491 33Q516 33 530 40ZM262 34T302 48T368 91T395 160V253L258 228Q177 213 140 186T103 117Q103 77 134 56T220 34Q262 34 302 48Z" />
<glyph unicode="b" glyph-name="b" horiz-adv-x="609" d="M429 510T490 441T552 250Q552 128 491 59T323 -10Q256 -10 207 22T137 112L134 0H89V730H139V394Q162 448 210 479T323 510Q429 510 490 441ZM404 34T453 91T502 250Q502 351 453 408T317 466Q239 466
191 413T139 268V232Q143 140 191 87T317 34Q404 34 453 91Z" />
<glyph unicode="c" glyph-name="c" horiz-adv-x="545" d="M368 510T420 475T496 375L449 353Q432 408 392 437T292 466Q205 466 156 409T107 250Q107 148 155 91T291 34Q355 34 399 65T454 153L500 137Q480 69 425 30T292 -10Q181 -10 119 59T57 250Q57 372 119
441T293 510Q368 510 420 475Z" />
<glyph unicode="d" glyph-name="d" horiz-adv-x="609" d="M520 730V0H475L472 112Q451 55 402 23T286 -10Q180 -10 119 59T57 250Q57 372 118 441T286 510Q351 510 399 479T470 394V730H520ZM370 34T418 86T470 229V271Q465 361 418 413T292 466Q205 466 156 409T107
250Q107 149 156 92T292 34Q370 34 418 86Z" />
<glyph unicode="e" glyph-name="e" horiz-adv-x="559" d="M505 245T503 229H106Q111 137 160 86T293 34Q352 34 394 58T456 126L498 104Q470 49 418 20T293 -10Q182 -10 120 59T57 250Q57 372 117 441T287 510Q389 510 447 442T505 262Q505 245 503 229ZM206 466T159
416T106 274H458Q453 364 409 415T287 466Q206 466 159 416Z" />
<glyph unicode="f" glyph-name="f" horiz-adv-x="359" d="M173 500H349V457H173V0H123V457H23V500H123V584Q123 654 162 694T272 735Q326 735 353 708L339 668Q314 690 276 690Q227 690 200 662T173 579V500Z" />
<glyph unicode="g" glyph-name="g" horiz-adv-x="515" d="M420 51T463 20T506 -63Q506 -108 476 -142T391 -196T268 -215Q155 -215 95 -179T35 -82Q35 -43 59 -15T125 25Q95 38 78 61T60 112Q60 148 83 173T147 209Q106 230 84 265T62 347Q62 421 117 465T265
510Q329 510 378 487Q384 535 418 563T503 592L515 548Q468 548 441 527T410 467Q467 421 467 347Q467 273 412 228T265 183Q234 183 197 190Q155 185 132 166T108 119Q108 87 135 69T216 51H345Q420 51 463 20ZM112 291T153 258T265 225Q335 225 376 258T417 347Q417
403 376 435T265 468Q195 468 154 436T112 347Q112 291 153 258ZM358 -173T409 -144T461 -69Q461 -33 429 -13T334 8H205Q148 8 115 -14T81 -74Q81 -120 131 -146T273 -173Q358 -173 409 -144Z" />
<glyph unicode="h" glyph-name="h" horiz-adv-x="598" d="M409 510T461 462T514 325V0H464V309Q464 388 425 427T318 467Q270 467 229 445T164 380T139 282V0H89V730H139V401Q163 454 211 482T323 510Q409 510 461 462Z" />
<glyph unicode="i" glyph-name="i" horiz-adv-x="229" d="M95 597T84 608T72 639Q72 658 83 669T114 681Q133 681 144 670T156 639Q156 620 145 609T114 597Q95 597 84 608ZM139 0H89V500H139V0Z" />
<glyph unicode="j" glyph-name="j" horiz-adv-x="229" d="M132 681T144 669T156 639Q156 622 144 610T114 597Q97 597 85 609T72 639Q72 657 84 669T114 681Q132 681 144 669ZM139 -57Q139 -135 98 -175T-3 -215Q-29 -215 -52 -208T-90 -187L-78 -140Q-65 -152
-46 -159T-4 -167Q39 -167 64 -138T89 -53V500H139V-57Z" />
<glyph unicode="k" glyph-name="k" horiz-adv-x="527" d="M257 265L139 151V0H89V730H139V214L436 500H501L294 300L509 0H448L257 265Z" />
<glyph unicode="l" glyph-name="l" horiz-adv-x="274" d="M135 121Q135 75 149 56T198 37Q218 37 232 40T264 51L257 3Q229 -10 191 -10Q137 -10 111 20T85 116V730H135V121Z" />
<glyph unicode="m" glyph-name="m" horiz-adv-x="960" d="M771 511T823 463T876 325V1H826V320Q826 392 787 429T682 467Q634 467 595 444T532 380T508 288V0H458V319Q458 391 419 428T314 466Q268 466 228 444T164 380T139 283V0H89V500H134L137 400Q161 452
210 481T319 510Q383 510 431 480T498 393Q518 448 571 479T688 511Q771 511 823 463Z" />
<glyph unicode="n" glyph-name="n" horiz-adv-x="598" d="M409 510T461 462T514 324V0H464V308Q464 388 425 427T318 466Q270 466 229 444T164 380T139 282V0H89V500H134L136 399Q160 453 209 481T323 510Q409 510 461 462Z" />
<glyph unicode="o" glyph-name="o" horiz-adv-x="590" d="M406 510T469 441T533 250Q533 129 470 60T295 -10Q184 -10 121 59T57 250Q57 371 120 440T295 510Q406 510 469 441ZM207 467T157 409T107 250Q107 149 157 91T295 33Q383 33 433 91T483 250Q483 351
433 409T295 467Q207 467 157 409Z" />
<glyph unicode="p" glyph-name="p" horiz-adv-x="609" d="M429 510T490 441T552 250Q552 128 491 59T323 -10Q259 -10 211 21T139 106V-210H89V500H134L137 387Q158 445 206 477T323 510Q429 510 490 441ZM404 34T453 91T502 250Q502 351 453 408T317 466Q239
466 191 413T139 268V232Q143 140 191 87T317 34Q404 34 453 91Z" />
<glyph unicode="q" glyph-name="q" horiz-adv-x="610" d="M521 500V-210H471V106Q448 52 400 21T287 -10Q181 -10 120 59T58 250Q58 372 119 441T287 510Q354 510 403 478T473 388L476 500H521ZM371 34T418 86T471 229V271Q467 361 419 413T293 466Q206 466 157
409T108 250Q108 149 157 92T293 34Q371 34 418 86Z" />
<glyph unicode="r" glyph-name="r" horiz-adv-x="378" d="M339 510T362 493L349 446Q326 464 285 464Q247 464 214 441T160 375T139 280V0H89V500H131L137 398Q158 451 199 480T299 510Q339 510 362 493Z" />
<glyph unicode="s" glyph-name="s" horiz-adv-x="505" d="M176 -10T120 20T43 107L84 134Q99 84 145 59T258 34Q326 34 364 60T403 129Q403 166 370 188T254 225Q149 244 106 276T63 367Q63 406 87 439T155 491T255 510Q334 510 381 480T447 388L404 363Q376 466
255 466Q215 466 183 453T132 419T113 372Q113 331 147 308T267 270Q369 253 411 221T453 131Q453 67 399 29T252 -10Q176 -10 120 20Z" />
<glyph unicode="t" glyph-name="t" horiz-adv-x="377" d="M365 32Q345 12 316 1T252 -10Q191 -10 157 23T122 125V457H22V500H122V625L172 639V500H360V457H172V132Q172 85 194 61T260 36Q310 36 347 73L365 32Z" />
<glyph unicode="u" glyph-name="u" horiz-adv-x="593" d="M504 500V0H459L457 99Q432 46 382 18T264 -10Q182 -10 133 35T84 170V500H134V182Q134 34 272 34Q327 34 368 58T432 123T454 213V500H504Z" />
<glyph unicode="v" glyph-name="v" horiz-adv-x="502" d="M485 500L276 0H226L17 500H73L252 51L432 500H485Z" />
<glyph unicode="w" glyph-name="w" horiz-adv-x="820" d="M787 500L616 0H566L408 437L254 0H204L33 500H89L229 59L385 500H435L590 59L731 500H787Z" />
<glyph unicode="x" glyph-name="x" horiz-adv-x="504" d="M419 0L250 219L84 0H24L222 256L34 500H98L255 296L407 500H467L283 259L482 0H419Z" />
<glyph unicode="y" glyph-name="y" horiz-adv-x="510" d="M249 -92Q221 -160 187 -187T101 -215Q39 -215 6 -178L25 -135Q49 -171 101 -171Q136 -171 160 -152T206 -80L238 0L186 124L27 500H84L237 121L262 54L289 126L436 500H490L249 -92Z" />
<glyph unicode="z" glyph-name="z" horiz-adv-x="505" d="M49 39L343 400L395 458L316 457H46V500H451V461L166 109L106 42L196 43H463V0H49V39Z" />
<glyph unicode="{" glyph-name="braceleft" horiz-adv-x="308" d="M179 -139T277 -139L270 -180Q132 -180 132 -62V162Q132 213 104 237T19 261V305Q76 305 104 329T132 404V627Q132 685 166 715T270 746L277 705Q228 705 204 686T179 631V400Q179 354 154 324T82
283Q129 272 154 242T179 166V-65Q179 -139 277 -139Z" />
<glyph unicode="|" glyph-name="bar" horiz-adv-x="207" d="M126 -168H82V730H126V-168Z" />
<glyph unicode="}" glyph-name="braceright" horiz-adv-x="308" d="M176 354T204 330T289 305V261Q232 261 204 237T176 162V-62Q176 -180 38 -180L31 -139Q129 -139 129 -65V166Q129 212 154 242T225 283Q179 294 154 324T129 400V631Q129 667 105 686T31 705L38
746Q108 746 142 716T176 627V404Q176 354 204 330Z" />
<glyph unicode="~" glyph-name="asciitilde" horiz-adv-x="511" d="M456 266T355 266Q323 266 301 276T246 306Q220 323 202 331T161 340Q104 340 91 263H43Q55 386 157 386Q188 386 211 376T266 346Q292 329 310 321T351 312Q407 312 421 389H468Q456 266 355 266Z" />
<glyph unicode="&#xa0;" glyph-name="uni00A0" horiz-adv-x="313" />
<glyph unicode="&#xa1;" glyph-name="exclamdown" horiz-adv-x="222" d="M91 418T79 430T66 463Q66 483 78 495T111 508Q131 508 143 496T156 463Q156 443 144 431T111 418Q91 418 79 430ZM85 160L91 310H131L137 160V-160H85V160Z" />
<glyph unicode="&#xa2;" glyph-name="cent" horiz-adv-x="553" d="M487 73T436 34T312 -10V-100H270V-9Q172 0 117 68T62 250Q62 363 117 431T270 509V600H312V510Q382 506 430 471T500 375L453 353Q438 406 402 435T312 468V32Q369 36 408 68T460 153L505 138Q487
73 436 34ZM110 155T151 98T270 32V467Q193 458 152 402T110 250Q110 155 151 98Z" />
<glyph unicode="&#xa3;" glyph-name="sterling" horiz-adv-x="601" d="M565 135Q565 63 530 27T432 -10Q389 -10 357 5T284 49Q259 22 223 6T144 -10Q97 -10 69 11T41 67Q41 101 71 123T152 146Q190 146 219 135T277 103Q290 130 290 164Q290 195 279 223T240
290H90V331H208Q174 376 160 408T146 477Q146 533 171 577T243 645T348 670Q424 670 472 631T535 519L491 496Q480 557 443 591T346 625Q275 625 234 587T192 484Q192 451 206 420T258 337L263 331H461V290H290Q311 256 320 228T329 167Q329 122 307 81Q340 56
365 44T426 31Q475 31 499 56T524 135H565ZM182 25T209 37T256 70Q229 88 205 98T153 108Q122 108 105 97T87 67Q87 47 104 36T149 25Q182 25 209 37Z" />
<glyph unicode="&#xa4;" glyph-name="currency" horiz-adv-x="635" d="M512 256T473 205L569 110L537 78L441 172Q390 132 318 132Q245 132 193 173L99 78L66 110L161 206Q123 258 123 331Q123 403 161 454L66 548L99 581L193 487Q245 528 318 528Q393 528 444
486L537 581L569 548L475 453Q512 402 512 331Q512 256 473 205ZM383 177T422 219T462 331Q462 399 423 441T318 483Q253 483 213 441T173 331Q173 262 213 220T318 177Q383 177 422 219Z" />
<glyph unicode="&#xa5;" glyph-name="yen" horiz-adv-x="596" d="M363 284H520V246H320V155H520V119H320V0H275V119H77V155H275V246H77V284H234L262 282L39 660H97L265 361L297 297H299L331 361L499 660H557L333 282L363 284Z" />
<glyph unicode="&#xa6;" glyph-name="brokenbar" horiz-adv-x="220" d="M132 366H88V730H132V366ZM132 -168H88V196H132V-168Z" />
<glyph unicode="&#xa7;" glyph-name="section" horiz-adv-x="569" d="M539 224T510 191T435 139Q460 120 471 95T483 35Q483 -5 460 -38T392 -90T287 -110Q144 -110 91 -17L129 14Q147 -27 186 -46T287 -66Q356 -66 394 -40T433 31Q433 64 416 86T359 122T249
147Q171 158 126 176T60 221T40 291Q40 336 68 369T143 421Q119 440 108 465T96 525Q96 565 119 598T188 650T295 670Q436 670 487 577L452 547Q412 626 294 626Q224 626 185 600T146 529Q146 496 163 474T220 438T330 413Q408 402 453 384T519 339T539 269Q539
224 510 191ZM489 197T489 265Q489 308 451 331T317 367Q235 378 191 396Q90 364 90 295Q90 252 127 229T261 193Q337 183 387 164Q489 197 489 265Z" />
<glyph unicode="&#xa8;" glyph-name="dieresis" horiz-adv-x="523" d="M187 671T198 660T209 630Q209 612 198 601T169 590Q151 590 140 601T128 630Q128 648 139 659T169 671Q187 671 198 660ZM376 671T387 660T399 630Q399 612 388 601T358 590Q340 590 329
601T317 630Q317 648 328 659T358 671Q376 671 387 660Z" />
<glyph unicode="&#xa9;" glyph-name="copyright" horiz-adv-x="809" d="M506 670T583 628T703 509T746 330Q746 228 704 151T584 32T404 -10Q302 -10 225 32T105 151T62 330Q62 431 104 508T224 628T404 670Q506 670 583 628ZM315 629T248 592T145 487T108 330Q108
241 144 173T248 68T404 31Q493 31 560 68T664 173T701 330Q701 419 664 487T560 592T404 629Q315 629 248 592ZM471 513T509 488T566 416L529 397Q502 475 413 475Q348 475 312 436T275 328Q275 259 311 220T413 181Q459 181 491 203T535 265L571 250Q554 200
513 172T414 143Q329 143 281 192T232 328Q232 414 280 463T414 513Q471 513 509 488Z" />
<glyph unicode="&#xaa;" glyph-name="ordfeminine" horiz-adv-x="368" d="M347 359T357 364L354 334Q338 327 321 327Q268 327 262 382Q246 356 212 342T135 327Q85 327 56 348T26 409Q26 449 57 473T154 510L257 528V550Q257 588 234 609T168 630Q128 630 103
615T64 564L32 581Q44 621 79 643T170 665Q232 665 266 636T300 552V396Q300 359 332 359Q347 359 357 364ZM185 362T221 383T257 442V498L169 481Q117 471 94 455T70 412Q70 362 144 362Q185 362 221 383ZM32 246H341V211H32V246Z" />
<glyph unicode="&#xab;" glyph-name="guillemotleft" horiz-adv-x="440" d="M103 265L239 69H183L49 265L183 461H239L103 265ZM252 265L388 69H332L198 265L332 461H388L252 265Z" />
<glyph unicode="&#xac;" glyph-name="logicalnot" horiz-adv-x="604" d="M537 339V152H487V293H67V339H537Z" />
<glyph unicode="&#xad;" glyph-name="uni00AD" horiz-adv-x="466" d="M387 240H80V291H387V240Z" />
<glyph unicode="&#xae;" glyph-name="registered" horiz-adv-x="809" d="M506 670T583 628T703 509T746 330Q746 228 704 151T584 32T404 -10Q302 -10 225 32T105 151T62 330Q62 431 104 508T224 628T404 670Q506 670 583 628ZM493 31T560 68T664 173T701 330Q701
419 664 487T560 592T404 629Q315 629 248 592T145 487T108 330Q108 241 144 173T248 68T404 31Q493 31 560 68ZM562 359T537 332T467 296L569 143H520L422 293H322V143H279V513H432Q493 513 527 484T562 403Q562 359 537 332ZM322 326H432Q520 328 520 403Q520
479 432 479H322V326Z" />
<glyph unicode="&#xaf;" glyph-name="overscore" horiz-adv-x="523" d="M422 600H102V642H422V600Z" />
<glyph unicode="&#xb0;" glyph-name="degree" horiz-adv-x="418" d="M141 368T99 410T56 519Q56 586 98 628T209 670Q277 670 319 628T362 519Q362 453 319 411T209 368Q141 368 99 410ZM257 409T287 440T317 519Q317 567 287 598T209 629Q161 629 131 598T100
519Q100 471 130 440T209 409Q257 409 287 440Z" />
<glyph unicode="&#xb1;" glyph-name="plusminus" horiz-adv-x="604" d="M537 406V359H326V132H279V359H67V406H279V632H326V406H537ZM67 46H537V0H67V46Z" />
<glyph unicode="&#xb2;" glyph-name="uni00B2" horiz-adv-x="348" d="M38 366Q89 405 140 447Q203 497 231 534T260 610Q260 650 236 674T169 698Q124 698 98 671T69 596L29 609Q33 667 70 701T170 735Q234 735 270 701T306 612Q306 529 172 428L97 369V368Q117
370 143 370H318V333H38V366Z" />
<glyph unicode="&#xb3;" glyph-name="uni00B3" horiz-adv-x="336" d="M223 735T256 706T290 628Q290 590 268 565T214 533V532Q249 530 274 505T299 439Q299 389 261 358T161 327Q105 327 69 351T19 421L61 440Q77 364 162 364Q203 364 228 385T253 444Q253 478
231 496T164 515H139V549H162Q201 549 222 569T243 623Q243 658 222 678T161 698Q125 698 102 681T72 632L31 647Q43 689 78 712T163 735Q223 735 256 706Z" />
<glyph unicode="&#xb4;" glyph-name="acute" horiz-adv-x="523" d="M384 741L290 583H249L329 741H384Z" />
<glyph unicode="&#xb5;" glyph-name="uni00B5" horiz-adv-x="581" d="M501 500V0H459L455 101Q431 49 381 20T261 -10Q219 -10 186 7T131 58V-210H81V500H131V182Q131 107 168 71T270 34Q346 34 396 78T451 191V500H501Z" />
<glyph unicode="&#xb6;" glyph-name="paragraph" horiz-adv-x="591" d="M505 -100H460V618H326V-100H280V221Q207 221 152 248T67 325T36 440Q36 506 67 556T156 633T289 660H505V-100ZM189 618T137 570T84 440Q84 358 136 311T280 263V618Q189 618 137 570Z" />
<glyph unicode="&#xb7;" glyph-name="middot" horiz-adv-x="210" d="M125 402T137 390T150 357Q150 337 138 325T105 313Q85 313 73 325T60 357Q60 377 72 389T105 402Q125 402 137 390Z" />
<glyph unicode="&#xb8;" glyph-name="cedilla" horiz-adv-x="523" d="M260 17Q319 -6 347 -39T376 -113Q376 -154 348 -181T273 -209Q239 -209 215 -200T170 -171L190 -136Q219 -171 267 -171Q295 -171 313 -154T332 -107Q332 -75 310 -51T226 3L260 17Z" />
<glyph unicode="&#xb9;" glyph-name="uni00B9" horiz-adv-x="220" d="M164 730V333H119V612Q119 644 122 680Q100 657 71 640T10 614V652Q40 660 75 682T125 730H164Z" />
<glyph unicode="&#xba;" glyph-name="ordmasculine" horiz-adv-x="357" d="M30 327T30 496Q30 665 179 665Q327 665 327 496Q327 327 179 327Q30 327 30 496ZM232 363T257 396T282 496Q282 563 257 596T179 630Q126 630 101 597T75 496Q75 429 100 396T179 363Q232
363 257 396ZM40 246H317V211H40V246Z" />
<glyph unicode="&#xbb;" glyph-name="guillemotright" horiz-adv-x="437" d="M105 461L239 265L105 69H49L185 265L49 461H105ZM254 461L388 265L254 69H198L334 265L198 461H254Z" />
<glyph unicode="&#xbc;" glyph-name="onequarter" horiz-adv-x="716" d="M164 665V268H119V547Q119 567 121 615Q99 592 70 575T10 549V587Q40 595 75 617T125 665H164ZM543 660H594L123 0H72L543 660ZM697 105H621V-4H582V105H384V131L571 393H621V138H697V105ZM582
138V295Q582 315 584 355H582L570 335Q566 329 561 321T550 305L428 138H582Z" />
<glyph unicode="&#xbd;" glyph-name="onehalf" horiz-adv-x="794" d="M164 665V268H119V547Q119 567 121 615Q99 592 70 575T10 549V587Q40 595 75 617T125 665H164ZM543 660H594L123 0H72L543 660ZM484 29Q535 68 586 110Q649 160 677 197T706 273Q706 313 682
337T615 361Q570 361 544 334T515 259L475 272Q479 330 516 364T616 398Q680 398 716 364T752 275Q752 192 618 91L543 32V31Q563 33 589 33H764V-4H484V29Z" />
<glyph unicode="&#xbe;" glyph-name="threequarters" horiz-adv-x="833" d="M223 670T256 641T290 563Q290 525 268 500T214 468V467Q249 465 274 440T299 374Q299 324 261 293T161 262Q105 262 69 286T19 356L61 375Q77 299 162 299Q203 299 228 320T253 379Q253
413 231 431T164 450H139V484H162Q201 484 222 504T243 558Q243 593 222 613T161 633Q125 633 102 616T72 567L31 582Q43 624 78 647T163 670Q223 670 256 641ZM659 660H710L239 0H188L659 660ZM813 105H737V-4H698V105H500V131L687 393H737V138H813V105ZM698 138V295Q698
315 700 355H698L686 335Q682 329 677 321T666 305L544 138H698Z" />
<glyph unicode="&#xbf;" glyph-name="questiondown" horiz-adv-x="505" d="M242 416T230 428T218 461Q218 481 230 493T262 506Q282 506 294 494T307 461Q307 441 295 429T262 416Q242 416 230 428ZM158 -172T101 -127T43 -3Q43 159 236 199V317H288V172Q182 147
139 109T95 3Q95 -57 137 -91T252 -126Q330 -126 374 -88T428 22L472 -3Q457 -83 401 -127T249 -172Q158 -172 101 -127Z" />
<glyph unicode="&#xc0;" glyph-name="Agrave" horiz-adv-x="625" d="M288 743L205 891H264L329 743H288ZM470 207H154L72 0H19L283 660H342L606 0H553L470 207ZM452 253L337 541L313 611H312L288 543L173 253H452Z" />
<glyph unicode="&#xc1;" glyph-name="Aacute" horiz-adv-x="625" d="M331 743H290L355 891H414L331 743ZM470 207H154L72 0H19L283 660H342L606 0H553L470 207ZM452 253L337 541L313 611H312L288 543L173 253H452Z" />
<glyph unicode="&#xc2;" glyph-name="Acircumflex" horiz-adv-x="625" d="M220 739H173L284 895H342L453 739H407L313 861L220 739ZM470 207H154L72 0H19L283 660H342L606 0H553L470 207ZM452 253L337 541L313 611H312L288 543L173 253H452Z" />
<glyph unicode="&#xc3;" glyph-name="Atilde" horiz-adv-x="625" d="M470 207H154L72 0H19L283 660H342L606 0H553L470 207ZM452 253L337 541L313 611H312L288 543L173 253H452ZM476 805T452 778T384 751Q356 751 339 760T300 789Q284 804 272 811T242 819Q215
819 203 803T183 750H143Q150 806 173 833T243 860Q270 860 287 851T326 822Q342 807 354 800T383 792Q410 792 423 808T443 861H483Q476 805 452 778Z" />
<glyph unicode="&#xc4;" glyph-name="Adieresis" horiz-adv-x="625" d="M470 207H154L72 0H19L283 660H342L606 0H553L470 207ZM452 253L337 541L313 611H312L288 543L173 253H452ZM236 831T247 820T258 790Q258 772 247 761T218 750Q200 750 189 761T177 790Q177
808 188 819T218 831Q236 831 247 820ZM425 831T436 820T448 790Q448 772 437 761T407 750Q389 750 378 761T366 790Q366 808 377 819T407 831Q425 831 436 820Z" />
<glyph unicode="&#xc5;" glyph-name="Aring" horiz-adv-x="625" d="M470 207H154L72 0H19L274 636Q245 646 229 669T213 726Q213 768 240 794T313 821Q358 821 385 795T413 726Q413 693 397 670T352 636L606 0H553L470 207ZM249 698T266 681T313 663Q341 663 359
680T377 726Q377 754 359 771T313 788Q284 788 267 771T249 726Q249 698 266 681ZM452 253L337 541L313 611H312L288 543L173 253H452Z" />
<glyph unicode="&#xc6;" glyph-name="AE" horiz-adv-x="922" d="M880 46V0H445V232H196L56 0H-1L401 660H865V614H495V358H783V312H495V46H880ZM445 279V614H425L224 279H445Z" />
<glyph unicode="&#xc7;" glyph-name="Ccedilla" horiz-adv-x="669" d="M601 91T541 46T397 -8Q462 -51 462 -113Q462 -154 434 -181T359 -209Q325 -209 301 -200T256 -171L276 -136Q305 -171 353 -171Q381 -171 399 -154T418 -107Q418 -78 401 -57T336 -9Q253
-3 191 40T96 157T62 330Q62 433 99 510T204 628T361 670Q559 670 617 507L568 484Q545 554 495 589T364 624Q290 624 234 589T146 487T115 330Q115 240 145 174T231 72T362 36Q442 36 498 75T576 186L626 167Q601 91 541 46Z" />
<glyph unicode="&#xc8;" glyph-name="Egrave" horiz-adv-x="612" d="M321 743L238 891H297L362 743H321ZM571 46V0H104V660H555V614H154V359H471V312H154V46H571Z" />
<glyph unicode="&#xc9;" glyph-name="Eacute" horiz-adv-x="612" d="M343 743H301L367 891H425L343 743ZM571 46V0H104V660H555V614H154V359H471V312H154V46H571Z" />
<glyph unicode="&#xca;" glyph-name="Ecircumflex" horiz-adv-x="612" d="M236 739H189L300 895H358L469 739H423L329 861L236 739ZM571 46V0H104V660H555V614H154V359H471V312H154V46H571Z" />
<glyph unicode="&#xcb;" glyph-name="Edieresis" horiz-adv-x="612" d="M571 46V0H104V660H555V614H154V359H471V312H154V46H571ZM252 831T263 820T274 790Q274 772 263 761T234 750Q216 750 205 761T193 790Q193 808 204 819T234 831Q252 831 263 820ZM441 831T452
820T464 790Q464 772 453 761T423 750Q405 750 394 761T382 790Q382 808 393 819T423 831Q441 831 452 820Z" />
<glyph unicode="&#xcc;" glyph-name="Igrave" horiz-adv-x="258" d="M145 743H104L21 891H80L145 743ZM154 0H104V660H154V0Z" />
<glyph unicode="&#xcd;" glyph-name="Iacute" horiz-adv-x="258" d="M230 891L147 743H106L171 891H230ZM154 0H104V660H154V0Z" />
<glyph unicode="&#xce;" glyph-name="Icircumflex" horiz-adv-x="258" d="M223 739L129 861L36 739H-11L100 895H158L269 739H223ZM154 0H104V660H154V0Z" />
<glyph unicode="&#xcf;" glyph-name="Idieresis" horiz-adv-x="258" d="M74 831T85 820T96 790Q96 772 85 761T55 750Q37 750 26 761T15 790Q15 808 26 819T55 831Q74 831 85 820ZM220 831T231 820T243 790Q243 772 232 761T202 750Q184 750 173 761T162 790Q162
808 173 819T202 831Q220 831 231 820ZM154 0H104V660H154V0Z" />
<glyph unicode="&#xd0;" glyph-name="Eth" horiz-adv-x="715" d="M483 660T568 577T653 335Q653 173 568 87T324 0H116V314H16V353H116V660H324Q483 660 568 577ZM460 46T530 121T601 335Q601 469 531 541T329 614H166V353H368V314H166V46H329Q460 46 530 121Z" />
<glyph unicode="&#xd1;" glyph-name="Ntilde" horiz-adv-x="715" d="M611 0H549L199 518L150 606H149L152 523V0H104V660H167L516 143L566 54L564 137V660H611V0ZM526 805T502 778T434 751Q406 751 389 760T350 789Q334 804 322 811T292 819Q265 819 253 803T233
750H193Q200 806 223 833T293 860Q320 860 337 851T376 822Q392 807 404 800T433 792Q460 792 473 808T493 861H533Q526 805 502 778Z" />
<glyph unicode="&#xd2;" glyph-name="Ograve" horiz-adv-x="732" d="M382 743H341L258 891H317L382 743ZM459 670T527 629T633 511T670 330Q670 226 633 150T528 32T366 -10Q273 -10 205 31T99 149T62 330Q62 434 99 510T204 628T366 670Q459 670 527 629ZM289
624T233 589T146 487T115 330Q115 240 145 174T232 72T366 36Q443 36 500 71T587 173T618 330Q618 420 588 486T500 588T366 624Q289 624 233 589Z" />
<glyph unicode="&#xd3;" glyph-name="Oacute" horiz-adv-x="732" d="M467 891L384 743H343L408 891H467ZM459 670T527 629T633 511T670 330Q670 226 633 150T528 32T366 -10Q273 -10 205 31T99 149T62 330Q62 434 99 510T204 628T366 670Q459 670 527 629ZM289
624T233 589T146 487T115 330Q115 240 145 174T232 72T366 36Q443 36 500 71T587 173T618 330Q618 420 588 486T500 588T366 624Q289 624 233 589Z" />
<glyph unicode="&#xd4;" glyph-name="Ocircumflex" horiz-adv-x="732" d="M460 739L366 861L273 739H226L337 895H395L506 739H460ZM459 670T527 629T633 511T670 330Q670 226 633 150T528 32T366 -10Q273 -10 205 31T99 149T62 330Q62 434 99 510T204 628T366
670Q459 670 527 629ZM289 624T233 589T146 487T115 330Q115 240 145 174T232 72T366 36Q443 36 500 71T587 173T618 330Q618 420 588 486T500 588T366 624Q289 624 233 589Z" />
<glyph unicode="&#xd5;" glyph-name="Otilde" horiz-adv-x="732" d="M459 670T527 629T633 511T670 330Q670 226 633 150T528 32T366 -10Q273 -10 205 31T99 149T62 330Q62 434 99 510T204 628T366 670Q459 670 527 629ZM289 624T233 589T146 487T115 330Q115
240 145 174T232 72T366 36Q443 36 500 71T587 173T618 330Q618 420 588 486T500 588T366 624Q289 624 233 589ZM529 805T505 778T437 751Q409 751 392 760T353 789Q337 804 325 811T295 819Q268 819 256 803T236 750H196Q203 806 226 833T296 860Q323 860 340
851T379 822Q395 807 407 800T436 792Q463 792 476 808T496 861H536Q529 805 505 778Z" />
<glyph unicode="&#xd6;" glyph-name="Odieresis" horiz-adv-x="732" d="M459 670T527 629T633 511T670 330Q670 226 633 150T528 32T366 -10Q273 -10 205 31T99 149T62 330Q62 434 99 510T204 628T366 670Q459 670 527 629ZM289 624T233 589T146 487T115 330Q115
240 145 174T232 72T366 36Q443 36 500 71T587 173T618 330Q618 420 588 486T500 588T366 624Q289 624 233 589ZM289 831T300 820T311 790Q311 772 300 761T271 750Q253 750 242 761T230 790Q230 808 241 819T271 831Q289 831 300 820ZM478 831T489 820T501 790Q501
772 490 761T460 750Q442 750 431 761T419 790Q419 808 430 819T460 831Q478 831 489 820Z" />
<glyph unicode="&#xd7;" glyph-name="multiply" horiz-adv-x="604" d="M336 315L502 149L468 114L302 281L135 114L101 149L267 315L101 481L135 516L302 349L468 516L502 481L336 315Z" />
<glyph unicode="&#xd8;" glyph-name="Oslash" horiz-adv-x="732" d="M622 545T646 479T670 330Q670 226 633 150T528 32T366 -10Q261 -10 188 42L134 -34H87L158 67Q112 112 87 179T62 330Q62 434 99 510T204 628T366 670Q473 670 548 615L598 686H646L577 590Q622
545 646 479ZM115 259T133 203T188 109L519 575Q456 624 366 624Q289 624 233 589T146 487T115 330Q115 259 133 203ZM443 36T500 71T587 173T618 330Q618 399 600 454T547 548L217 83Q280 36 366 36Q443 36 500 71Z" />
<glyph unicode="&#xd9;" glyph-name="Ugrave" horiz-adv-x="701" d="M376 743H335L252 891H311L376 743ZM605 241Q605 119 539 55T351 -10Q229 -10 163 54T96 241V660H146V251Q146 145 198 91T351 36Q451 36 503 90T555 251V660H605V241Z" />
<glyph unicode="&#xda;" glyph-name="Uacute" horiz-adv-x="701" d="M452 891L369 743H328L393 891H452ZM605 241Q605 119 539 55T351 -10Q229 -10 163 54T96 241V660H146V251Q146 145 198 91T351 36Q451 36 503 90T555 251V660H605V241Z" />
<glyph unicode="&#xdb;" glyph-name="Ucircumflex" horiz-adv-x="701" d="M445 739L351 861L258 739H211L322 895H380L491 739H445ZM605 241Q605 119 539 55T351 -10Q229 -10 163 54T96 241V660H146V251Q146 145 198 91T351 36Q451 36 503 90T555 251V660H605V241Z" />
<glyph unicode="&#xdc;" glyph-name="Udieresis" horiz-adv-x="701" d="M605 241Q605 119 539 55T351 -10Q229 -10 163 54T96 241V660H146V251Q146 145 198 91T351 36Q451 36 503 90T555 251V660H605V241ZM274 831T285 820T296 790Q296 772 285 761T256 750Q238
750 227 761T215 790Q215 808 226 819T256 831Q274 831 285 820ZM463 831T474 820T486 790Q486 772 475 761T445 750Q427 750 416 761T404 790Q404 808 415 819T445 831Q463 831 474 820Z" />
<glyph unicode="&#xdd;" glyph-name="Yacute" horiz-adv-x="544" d="M373 891L290 743H249L314 891H373ZM297 257V0H247V257L13 660H72L272 309L472 660H531L297 257Z" />
<glyph unicode="&#xde;" glyph-name="Thorn" horiz-adv-x="599" d="M431 534T491 484T551 338Q551 243 491 193T312 143H154V0H104V660H154V534H312Q431 534 491 484ZM499 189T499 338Q499 488 320 488H154V189H320Q499 189 499 338Z" />
<glyph unicode="&#xdf;" glyph-name="germandbls" horiz-adv-x="590" d="M441 383T488 328T535 190Q535 134 511 89T440 17T330 -10Q298 -10 269 0T225 28L242 67Q274 35 332 35Q403 35 444 79T486 195Q486 275 437 316T301 358H260V404H301Q372 404 414 444T456
553Q456 619 417 654T306 689Q219 689 179 639T139 488V0H89V506Q89 735 311 735Q376 735 420 711T485 645T507 555Q507 511 489 473T435 411T350 386V384Q441 383 488 328Z" />
<glyph unicode="&#xe0;" glyph-name="agrave" horiz-adv-x="543" d="M516 33T530 40L527 0Q509 -10 478 -10Q443 -10 421 9T396 75Q373 35 322 13T215 -10Q141 -10 97 23T52 117Q52 233 242 267L395 294V338Q395 398 360 432T259 466Q140 466 99 360L61 388Q83
447 134 478T259 510Q346 510 395 468T445 344V86Q445 33 491 33Q516 33 530 40ZM262 34T302 48T368 91T395 160V253L258 228Q177 213 140 186T103 117Q103 77 134 56T220 34Q262 34 302 48ZM288 583H246L153 741H207L288 583Z" />
<glyph unicode="&#xe1;" glyph-name="aacute" horiz-adv-x="543" d="M516 33T530 40L527 0Q509 -10 478 -10Q443 -10 421 9T396 75Q373 35 322 13T215 -10Q141 -10 97 23T52 117Q52 233 242 267L395 294V338Q395 398 360 432T259 466Q140 466 99 360L61 388Q83
447 134 478T259 510Q346 510 395 468T445 344V86Q445 33 491 33Q516 33 530 40ZM262 34T302 48T368 91T395 160V253L258 228Q177 213 140 186T103 117Q103 77 134 56T220 34Q262 34 302 48ZM622 741L528 583H487L567 741H622Z" />
<glyph unicode="&#xe2;" glyph-name="acircumflex" horiz-adv-x="543" d="M516 33T530 40L527 0Q509 -10 478 -10Q443 -10 421 9T396 75Q373 35 322 13T215 -10Q141 -10 97 23T52 117Q52 233 242 267L395 294V338Q395 398 360 432T259 466Q140 466 99 360L61 388Q83
447 134 478T259 510Q346 510 395 468T445 344V86Q445 33 491 33Q516 33 530 40ZM262 34T302 48T368 91T395 160V253L258 228Q177 213 140 186T103 117Q103 77 134 56T220 34Q262 34 302 48ZM608 579L516 699L424 579H377L487 735H544L655 579H608Z" />
<glyph unicode="&#xe3;" glyph-name="atilde" horiz-adv-x="543" d="M516 33T530 40L527 0Q509 -10 478 -10Q443 -10 421 9T396 75Q373 35 322 13T215 -10Q141 -10 97 23T52 117Q52 233 242 267L395 294V338Q395 398 360 432T259 466Q140 466 99 360L61 388Q83
447 134 478T259 510Q346 510 395 468T445 344V86Q445 33 491 33Q516 33 530 40ZM262 34T302 48T368 91T395 160V253L258 228Q177 213 140 186T103 117Q103 77 134 56T220 34Q262 34 302 48ZM423 645T399 618T331 591Q303 591 286 600T247 629Q231 644 219 651T189
659Q162 659 150 643T130 590H90Q97 646 120 673T190 700Q217 700 234 691T273 662Q289 647 301 640T330 632Q357 632 370 648T390 701H430Q423 645 399 618Z" />
<glyph unicode="&#xe4;" glyph-name="adieresis" horiz-adv-x="543" d="M516 33T530 40L527 0Q509 -10 478 -10Q443 -10 421 9T396 75Q373 35 322 13T215 -10Q141 -10 97 23T52 117Q52 233 242 267L395 294V338Q395 398 360 432T259 466Q140 466 99 360L61 388Q83
447 134 478T259 510Q346 510 395 468T445 344V86Q445 33 491 33Q516 33 530 40ZM262 34T302 48T368 91T395 160V253L258 228Q177 213 140 186T103 117Q103 77 134 56T220 34Q262 34 302 48ZM439 671T450 660T461 630Q461 612 450 601T421 590Q403 590 392 601T380
630Q380 648 391 659T421 671Q439 671 450 660ZM628 671T639 660T651 630Q651 612 640 601T610 590Q592 590 581 601T569 630Q569 648 580 659T610 671Q628 671 639 660Z" />
<glyph unicode="&#xe5;" glyph-name="aring" horiz-adv-x="543" d="M516 33T530 40L527 0Q509 -10 478 -10Q443 -10 421 9T396 75Q373 35 322 13T215 -10Q141 -10 97 23T52 117Q52 233 242 267L395 294V338Q395 398 360 432T259 466Q140 466 99 360L61 388Q83
447 134 478T259 510Q346 510 395 468T445 344V86Q445 33 491 33Q516 33 530 40ZM262 34T302 48T368 91T395 160V253L258 228Q177 213 140 186T103 117Q103 77 134 56T220 34Q262 34 302 48ZM303 776T332 748T362 676Q362 632 333 604T257 575Q211 575 182 603T152
676Q152 720 181 748T257 776Q303 776 332 748ZM228 743T209 724T189 676Q189 647 208 628T257 608Q287 608 306 627T326 676Q326 705 307 724T257 743Q228 743 209 724Z" />
<glyph unicode="&#xe6;" glyph-name="ae" horiz-adv-x="876" d="M822 255T820 237H444Q447 143 494 89T617 34Q678 34 715 57T771 126L812 104Q784 48 738 19T617 -10Q545 -10 495 25T421 130Q405 60 347 25T212 -10Q139 -10 96 23T52 117Q52 176 98 214T237 264L399
282V337Q399 398 363 432T259 466Q142 466 99 360L61 388Q83 448 134 479T260 510Q327 510 371 481T433 394Q459 449 505 479T613 510Q715 510 768 446T822 270Q822 255 820 237ZM542 466T497 418T445 282H775Q764 466 613 466Q542 466 497 418ZM264 34T305 51T372
104T399 193V243L253 224Q174 215 139 188T103 117Q103 76 135 55T221 34Q264 34 305 51Z" />
<glyph unicode="&#xe7;" glyph-name="ccedilla" horiz-adv-x="545" d="M482 75T435 37T319 -9Q384 -51 384 -113Q384 -154 356 -181T281 -209Q247 -209 223 -200T178 -171L198 -136Q227 -171 275 -171Q303 -171 321 -154T340 -107Q340 -78 322 -56T256 -8Q162
3 110 71T57 250Q57 372 119 441T293 510Q368 510 420 475T496 375L449 353Q432 408 392 437T292 466Q205 466 156 409T107 250Q107 148 155 91T291 34Q355 34 399 65T454 153L500 137Q482 75 435 37Z" />
<glyph unicode="&#xe8;" glyph-name="egrave" horiz-adv-x="559" d="M505 245T503 229H106Q111 137 160 86T293 34Q352 34 394 58T456 126L498 104Q470 49 418 20T293 -10Q182 -10 120 59T57 250Q57 372 117 441T287 510Q389 510 447 442T505 262Q505 245 503
229ZM206 466T159 416T106 274H458Q453 364 409 415T287 466Q206 466 159 416ZM312 583H270L177 741H231L312 583Z" />
<glyph unicode="&#xe9;" glyph-name="eacute" horiz-adv-x="559" d="M505 245T503 229H106Q111 137 160 86T293 34Q352 34 394 58T456 126L498 104Q470 49 418 20T293 -10Q182 -10 120 59T57 250Q57 372 117 441T287 510Q389 510 447 442T505 262Q505 245 503
229ZM206 466T159 416T106 274H458Q453 364 409 415T287 466Q206 466 159 416ZM390 741L296 583H255L335 741H390Z" />
<glyph unicode="&#xea;" glyph-name="ecircumflex" horiz-adv-x="559" d="M505 245T503 229H106Q111 137 160 86T293 34Q352 34 394 58T456 126L498 104Q470 49 418 20T293 -10Q182 -10 120 59T57 250Q57 372 117 441T287 510Q389 510 447 442T505 262Q505 245
503 229ZM206 466T159 416T106 274H458Q453 364 409 415T287 466Q206 466 159 416ZM376 579L284 699L192 579H145L255 735H312L423 579H376Z" />
<glyph unicode="&#xeb;" glyph-name="edieresis" horiz-adv-x="559" d="M505 245T503 229H106Q111 137 160 86T293 34Q352 34 394 58T456 126L498 104Q470 49 418 20T293 -10Q182 -10 120 59T57 250Q57 372 117 441T287 510Q389 510 447 442T505 262Q505 245 503
229ZM206 466T159 416T106 274H458Q453 364 409 415T287 466Q206 466 159 416ZM207 671T218 660T229 630Q229 612 218 601T189 590Q171 590 160 601T148 630Q148 648 159 659T189 671Q207 671 218 660ZM396 671T407 660T419 630Q419 612 408 601T378 590Q360 590
349 601T337 630Q337 648 348 659T378 671Q396 671 407 660Z" />
<glyph unicode="&#xec;" glyph-name="igrave" horiz-adv-x="229" d="M139 0H89V500H139V0ZM142 583H100L7 741H61L142 583Z" />
<glyph unicode="&#xed;" glyph-name="iacute" horiz-adv-x="229" d="M139 0H89V500H139V0ZM220 741L126 583H85L165 741H220Z" />
<glyph unicode="&#xee;" glyph-name="icircumflex" horiz-adv-x="229" d="M139 0H89V500H139V0ZM207 579L115 699L23 579H-24L86 735H143L254 579H207Z" />
<glyph unicode="&#xef;" glyph-name="idieresis" horiz-adv-x="229" d="M30 590T19 601T8 630Q8 648 19 659T48 671Q67 671 78 660T89 630Q89 612 78 601T48 590Q30 590 19 601ZM162 590T151 601T139 630Q139 648 150 659T180 671Q198 671 209 660T221 630Q221
612 210 601T180 590Q162 590 151 601ZM139 0H89V500H139V0Z" />
<glyph unicode="&#xf0;" glyph-name="eth" horiz-adv-x="600" d="M436 611Q530 487 530 286Q530 145 469 68T293 -10Q184 -10 121 56T57 238Q57 313 86 369T168 455T288 485Q357 485 405 459T480 383Q461 516 392 601L212 559L205 591L370 626Q314 687 221 730H294Q368
690 415 637L529 665L538 633L436 611ZM381 34T430 92T482 247Q482 332 432 386T294 441Q208 441 158 387T108 238Q108 143 158 89T295 34Q381 34 430 92Z" />
<glyph unicode="&#xf1;" glyph-name="ntilde" horiz-adv-x="598" d="M409 510T461 462T514 324V0H464V308Q464 388 425 427T318 466Q270 466 229 444T164 380T139 282V0H89V500H134L136 399Q160 453 209 481T323 510Q409 510 461 462ZM469 645T445 618T377 591Q349
591 332 600T293 629Q277 644 265 651T235 659Q208 659 196 643T176 590H136Q143 646 166 673T236 700Q263 700 280 691T319 662Q335 647 347 640T376 632Q403 632 416 648T436 701H476Q469 645 445 618Z" />
<glyph unicode="&#xf2;" glyph-name="ograve" horiz-adv-x="590" d="M406 510T469 441T533 250Q533 129 470 60T295 -10Q184 -10 121 59T57 250Q57 371 120 440T295 510Q406 510 469 441ZM207 467T157 409T107 250Q107 149 157 91T295 33Q383 33 433 91T483 250Q483
351 433 409T295 467Q207 467 157 409ZM323 583H281L188 741H242L323 583Z" />
<glyph unicode="&#xf3;" glyph-name="oacute" horiz-adv-x="590" d="M406 510T469 441T533 250Q533 129 470 60T295 -10Q184 -10 121 59T57 250Q57 371 120 440T295 510Q406 510 469 441ZM207 467T157 409T107 250Q107 149 157 91T295 33Q383 33 433 91T483 250Q483
351 433 409T295 467Q207 467 157 409ZM401 741L307 583H266L346 741H401Z" />
<glyph unicode="&#xf4;" glyph-name="ocircumflex" horiz-adv-x="590" d="M406 510T469 441T533 250Q533 129 470 60T295 -10Q184 -10 121 59T57 250Q57 371 120 440T295 510Q406 510 469 441ZM207 467T157 409T107 250Q107 149 157 91T295 33Q383 33 433 91T483
250Q483 351 433 409T295 467Q207 467 157 409ZM387 579L295 699L203 579H156L266 735H323L434 579H387Z" />
<glyph unicode="&#xf5;" glyph-name="otilde" horiz-adv-x="590" d="M406 510T469 441T533 250Q533 129 470 60T295 -10Q184 -10 121 59T57 250Q57 371 120 440T295 510Q406 510 469 441ZM207 467T157 409T107 250Q107 149 157 91T295 33Q383 33 433 91T483 250Q483
351 433 409T295 467Q207 467 157 409ZM458 645T434 618T366 591Q338 591 321 600T282 629Q266 644 254 651T224 659Q197 659 185 643T165 590H125Q132 646 155 673T225 700Q252 700 269 691T308 662Q324 647 336 640T365 632Q392 632 405 648T425 701H465Q458
645 434 618Z" />
<glyph unicode="&#xf6;" glyph-name="odieresis" horiz-adv-x="590" d="M406 510T469 441T533 250Q533 129 470 60T295 -10Q184 -10 121 59T57 250Q57 371 120 440T295 510Q406 510 469 441ZM207 467T157 409T107 250Q107 149 157 91T295 33Q383 33 433 91T483
250Q483 351 433 409T295 467Q207 467 157 409ZM218 671T229 660T240 630Q240 612 229 601T200 590Q182 590 171 601T159 630Q159 648 170 659T200 671Q218 671 229 660ZM407 671T418 660T430 630Q430 612 419 601T389 590Q371 590 360 601T348 630Q348 648 359
659T389 671Q407 671 418 660Z" />
<glyph unicode="&#xf7;" glyph-name="divide" horiz-adv-x="604" d="M322 552T334 540T347 507Q347 487 335 475T302 462Q282 462 270 474T257 507Q257 527 269 539T302 552Q322 552 334 540ZM537 293H67V339H537V293ZM322 170T334 158T347 126Q347 106 335 94T302
81Q282 81 270 93T257 126Q257 146 269 158T302 170Q322 170 334 158Z" />
<glyph unicode="&#xf8;" glyph-name="oslash" horiz-adv-x="591" d="M382 510T443 465L491 526H536L470 441Q533 372 533 250Q533 129 470 60T295 -10Q210 -10 154 31L104 -34H58L125 54Q57 124 57 250Q57 371 120 440T295 510Q382 510 443 465ZM157 93L187 135L415
427Q366 467 295 467Q207 467 157 409T107 250Q107 150 156 93H157ZM383 33T433 91T483 250Q483 343 439 401H438L412 366L182 68Q226 33 295 33Q383 33 433 91Z" />
<glyph unicode="&#xf9;" glyph-name="ugrave" horiz-adv-x="593" d="M504 500V0H459L457 99Q432 46 382 18T264 -10Q182 -10 133 35T84 170V500H134V182Q134 34 272 34Q327 34 368 58T432 123T454 213V500H504ZM323 583H281L188 741H242L323 583Z" />
<glyph unicode="&#xfa;" glyph-name="uacute" horiz-adv-x="593" d="M504 500V0H459L457 99Q432 46 382 18T264 -10Q182 -10 133 35T84 170V500H134V182Q134 34 272 34Q327 34 368 58T432 123T454 213V500H504ZM401 741L307 583H266L346 741H401Z" />
<glyph unicode="&#xfb;" glyph-name="ucircumflex" horiz-adv-x="593" d="M504 500V0H459L457 99Q432 46 382 18T264 -10Q182 -10 133 35T84 170V500H134V182Q134 34 272 34Q327 34 368 58T432 123T454 213V500H504ZM387 579L295 699L203 579H156L266 735H323L434
579H387Z" />
<glyph unicode="&#xfc;" glyph-name="udieresis" horiz-adv-x="593" d="M504 500V0H459L457 99Q432 46 382 18T264 -10Q182 -10 133 35T84 170V500H134V182Q134 34 272 34Q327 34 368 58T432 123T454 213V500H504ZM218 671T229 660T240 630Q240 612 229 601T200
590Q182 590 171 601T159 630Q159 648 170 659T200 671Q218 671 229 660ZM407 671T418 660T430 630Q430 612 419 601T389 590Q371 590 360 601T348 630Q348 648 359 659T389 671Q407 671 418 660Z" />
<glyph unicode="&#xfd;" glyph-name="yacute" horiz-adv-x="510" d="M249 -92Q221 -160 187 -187T101 -215Q39 -215 6 -178L25 -135Q49 -171 101 -171Q136 -171 160 -152T206 -80L238 0L186 124L27 500H84L237 121L262 54L289 126L436 500H490L249 -92ZM621 741L527
583H486L566 741H621Z" />
<glyph unicode="&#xfe;" glyph-name="thorn" horiz-adv-x="609" d="M429 510T490 441T552 250Q552 128 491 59T323 -10Q259 -10 211 19T139 99V-210H89V730H139V401Q163 452 211 481T323 510Q429 510 490 441ZM404 34T453 91T502 250Q502 351 453 408T317 466Q236
466 188 409T139 255V245Q139 147 187 91T317 34Q404 34 453 91Z" />
<glyph unicode="&#xff;" glyph-name="ydieresis" horiz-adv-x="510" d="M249 -92Q221 -160 187 -187T101 -215Q39 -215 6 -178L25 -135Q49 -171 101 -171Q136 -171 160 -152T206 -80L238 0L186 124L27 500H84L237 121L262 54L289 126L436 500H490L249 -92ZM439
671T450 660T461 630Q461 612 450 601T421 590Q403 590 392 601T380 630Q380 648 391 659T421 671Q439 671 450 660ZM628 671T639 660T651 630Q651 612 640 601T610 590Q592 590 581 601T569 630Q569 648 580 659T610 671Q628 671 639 660Z" />
<glyph unicode="&#x2013;" glyph-name="endash" horiz-adv-x="638" d="M563 242H75V289H563V242Z" />
<glyph unicode="&#x2014;" glyph-name="emdash" horiz-adv-x="979" d="M903 242H75V289H903V242Z" />
<glyph unicode="&#x2018;" glyph-name="quoteleft" horiz-adv-x="217" d="M83 486T68 506T53 558Q53 601 74 637T139 695L167 670Q132 658 110 627T89 567L92 566Q98 575 115 575Q130 575 142 563T154 531Q154 513 141 500T109 486Q83 486 68 506Z" />
<glyph unicode="&#x2019;" glyph-name="quoteright" horiz-adv-x="216" d="M138 694T153 674T168 622Q168 579 147 543T82 485L54 510Q89 522 111 553T132 613L129 614Q123 605 106 605Q91 605 79 616T67 648Q67 667 80 680T112 694Q138 694 153 674Z" />
<glyph unicode="&#x201a;" glyph-name="quotesinglbase" horiz-adv-x="223" d="M392 82T406 62T421 9Q421 -33 399 -70T335 -128L307 -103Q342 -90 364 -59T385 1L382 2Q375 -8 359 -8Q344 -8 332 4T320 36Q320 55 333 68T366 82Q392 82 406 62Z" />
<glyph unicode="&#x201c;" glyph-name="quotedblleft" horiz-adv-x="362" d="M83 486T68 506T53 558Q53 601 74 637T139 695L167 670Q132 658 110 627T89 567L92 566Q98 575 115 575Q130 575 142 563T154 531Q154 513 141 500T109 486Q83 486 68 506ZM229 486T214
506T199 558Q199 601 220 637T285 695L313 670Q278 658 256 627T235 567L238 566Q244 575 261 575Q276 575 288 563T300 531Q300 513 287 500T255 486Q229 486 214 506Z" />
<glyph unicode="&#x201d;" glyph-name="quotedblright" horiz-adv-x="362" d="M138 694T153 674T168 622Q168 579 147 543T82 485L54 510Q89 522 111 553T132 613L129 614Q123 605 106 605Q91 605 79 616T67 648Q67 667 80 680T112 694Q138 694 153 674ZM284 694T299
674T314 622Q314 579 293 543T228 485L200 510Q235 522 257 553T278 613L275 614Q269 605 252 605Q237 605 225 616T213 648Q213 667 226 680T258 694Q284 694 299 674Z" />
<glyph unicode="&#x201e;" glyph-name="quotedblbase" horiz-adv-x="369" d="M392 82T406 62T421 9Q421 -33 399 -70T335 -128L307 -103Q342 -90 364 -59T385 1L382 2Q375 -8 359 -8Q344 -8 332 4T320 36Q320 55 333 68T366 82Q392 82 406 62ZM282 82T296 62T311
9Q311 -33 289 -70T225 -128L197 -103Q232 -90 254 -59T275 1L272 2Q265 -8 249 -8Q234 -8 222 4T210 36Q210 55 223 68T256 82Q282 82 296 62Z" />
<glyph unicode="&#x2022;" glyph-name="bullet" horiz-adv-x="430" d="M256 430T283 404T310 338Q310 298 283 272T215 246Q174 246 147 272T120 338Q120 378 147 404T215 430Q256 430 283 404Z" />
<glyph unicode="&#x2039;" glyph-name="guilsinglleft" horiz-adv-x="290" d="M103 265L239 69H183L49 265L183 461H239L103 265Z" />
<glyph unicode="&#x203a;" glyph-name="guilsinglright" horiz-adv-x="290" d="M107 461L242 265L107 69H51L187 265L51 461H107Z" />
</font>
</defs>
</svg>
