<svg xmlns="http://www.w3.org/2000/svg"><defs><font id="Inconsolata" horiz-adv-x="499"><font-face alphabetic="0" ascent="859" descent="-190" font-family="Inconsolata" panose-1="2 11 6 9 3 0 3 0 0 0" units-per-em="1000"/><glyph glyph-name="space" horiz-adv-x="500"/><glyph d="M281 89Q299 71 299 47Q299 24 281 7T239 -11Q215 -11 198 6T180 47Q180 71 197 89T239 107Q263 107 281 89ZM241 668Q264 668 278 649T292 584Q292 573 291 558T288 522L283 470L265 194H215L200 470Q199 486 198 503T195 537T192 569T190 594Q190 629 203 648T241 668Z" glyph-name="exclam" horiz-adv-x="500" unicode="!"/><glyph d="M315 548L309 611Q309 639 322 652T352 666Q369 666 383 651T397 603Q397 572 363 478L339 412L284 425L306 493Q315 523 315 548ZM143 548L136 611Q136 639 149 652T179 666Q196 666 210 651T224 603Q224 569 191 478L167 412L111 425L133 493Q138 508 140 521T143 548Z" glyph-name="quotedbl" horiz-adv-x="500" unicode="&quot;"/><glyph d="M173 624L234 626L213 455H323L343 622L405 623L385 457H476L470 410H379L358 241H457L452 196H353L331 14L270 10L292 193H181L160 14L101 13L122 191H25L29 236H128L148 407H39L42 453H153L173 624ZM207 408L187 238H297L318 408H207Z" glyph-name="numbersign" horiz-adv-x="500" unicode="#"/><glyph d="M235 651H299Q300 650 300 648Q300 646 297 642T293 630V592Q387 581 442 515L399 461Q394 463 394 470T388 482Q353 523 293 533V340Q336 326 367 311T419 278T450 236T460 181Q460 152 449 125T416 76T363 37T293 16V-47H235V14Q127 22 60 94L103 154Q107 151 107 144T110 133Q160 79 235 72V292Q157 318 118 354T79 446Q79 473 90 497T122 541T171 573T235 591V651ZM293 273V74Q341 83 368 112T395 177Q395 213 371 234T293 273ZM235 361V534Q190 529 168 506T145 454Q145 397 235 361Z" glyph-name="dollar" horiz-adv-x="500" unicode="$"/><glyph d="M391 623H458L110 0H46L391 623ZM28 504Q28 531 37 555T61 596T96 624T140 634Q163 634 183 624T219 596T243 554T252 503Q252 446 220 410T140 373Q117 373 97 383T61 410T37 452T28 504ZM189 504Q189 547 173 564T138 582Q120 582 105 565T89 504Q89 462 105 444T140 426Q159 426 174 443T189 504ZM371 249Q394 249 414 239T450 211T473 170T482 119Q482 92 473 68T449 27T414 0T371 -10Q348 -10 328 0T292 27T268 68T259 119Q259 146 268 170T292 211T327 239T371 249ZM406 179Q389 198 370 198Q350 198 334 180T318 120Q318 77 335 59T372 40Q392 40 407 59T423 118Q423 159 406 179Z" glyph-name="percent" horiz-adv-x="500" unicode="%"/><glyph d="M413 262L412 274Q412 280 416 284L481 239Q447 179 405 123L475 32L416 -12L361 76Q330 37 286 14T192 -10Q158 -10 130 2T80 34T48 82T36 141Q36 204 70 257T162 343Q91 429 91 498Q91 526 102 550T131 591T175 619T228 629Q258 629 283 618T326 589T353 547T363 498Q363 473 355 448T333 401T299 360T255 330L367 173Q381 190 395 215T413 262ZM160 497Q160 449 221 373Q257 390 277 424T297 492Q297 525 277 547T229 570Q201 570 181 550T160 497ZM197 296Q157 271 135 231T112 152Q112 131 119 114T138 83T165 62T199 54Q215 54 232 59T263 71T290 88T309 106L324 123L197 296Z" glyph-name="ampersand" horiz-adv-x="500" unicode="&amp;"/><glyph d="M238 548L231 611Q231 639 244 652T274 666Q291 666 305 651T319 603Q318 586 311 555T286 478L261 412L206 425L228 493Q233 508 235 521T238 548Z" glyph-name="quotesingle" horiz-adv-x="500" unicode="'"/><glyph d="M414 603L403 604Q400 604 394 601Q306 549 257 460T208 256Q208 200 223 146T266 42T334 -49T425 -120L393 -173Q333 -142 286 -97T207 5T157 125T139 258Q139 326 156 388T207 504T286 599T392 666L422 605Q416 603 414 603Z" glyph-name="parenleft" horiz-adv-x="500" unicode="("/><glyph d="M78 603L97 665Q157 637 207 594T291 496T345 379T364 250Q364 183 345 120T290 1T204 -100T91 -174L72 -114Q123 -87 163 -49T233 37T277 138T293 247Q293 303 278 356T234 455T166 539T78 603Z" glyph-name="parenright" horiz-adv-x="500" unicode=")"/><glyph d="M213 519H294Q293 513 291 506T288 492L273 342L432 414L458 353L287 301L413 150L358 107L250 273L138 106L84 150L214 300L41 353L67 418L229 342L213 519Z" glyph-name="asterisk" horiz-adv-x="500" unicode="*"/><glyph d="M222 523H285V352H456V291H285V104H222V291H45V352H222V523Z" glyph-name="plus" horiz-adv-x="500" unicode="+"/><glyph d="M306 20Q306 -59 199 -168L165 -138Q193 -112 211 -82T230 -33Q230 -23 222 -15T205 2T187 20T179 44Q179 69 195 86T238 103Q264 103 285 80T306 20Z" glyph-name="comma" horiz-adv-x="500" unicode=","/><glyph d="M71 348H431V281H71V348Z" glyph-name="hyphen" horiz-adv-x="500" unicode="-"/><glyph d="M280 87Q298 69 298 46Q298 23 281 6T238 -11Q213 -11 196 5T179 46Q179 70 197 87T238 104Q261 104 280 87Z" glyph-name="period" horiz-adv-x="500" unicode="."/><glyph d="M64 -13L377 665L437 634L123 -42L64 -13Z" glyph-name="slash" horiz-adv-x="500" unicode="/"/><glyph d="M386 544Q415 505 432 442T450 301Q450 222 433 164T387 66T322 8T249 -11Q211 -11 175 12T111 76T67 176T50 306Q50 377 66 436T111 537T175 603T249 627Q327 627 386 544ZM349 485Q329 525 303 545T250 566Q225 566 201 548T157 498T127 420T115 319Q115 257 129 201L349 485ZM372 418L152 138Q176 93 202 73T255 53Q282 53 305 69T346 117T374 192T385 293Q385 328 382 359T372 418Z" glyph-name="zero" horiz-adv-x="500" unicode="0"/><glyph d="M299 624V0H230V537L104 500L88 539L251 624H299Z" glyph-name="one" horiz-adv-x="500" unicode="1"/><glyph d="M78 526Q105 574 151 600T252 627Q289 627 322 614T380 576T419 520T433 452Q433 423 425 397T402 348T370 303T331 263L271 207Q258 195 242 179T211 143T180 103T154 61H415Q420 61 425 65T436 70H439V0H73V44Q110 117 153 170T236 259L284 303Q309 326 324 345T349 383T361 417T364 451Q364 473 355 493T330 530T293 556T250 566Q224 566 204 559T168 541T143 519T133 498Q131 489 129 486L78 526Z" glyph-name="two" horiz-adv-x="500" unicode="2"/><glyph d="M411 467Q411 422 386 385T318 332Q366 315 395 271T425 171Q425 134 412 101T373 43T310 4T226 -11Q134 -11 69 60L122 123Q126 119 128 110T135 94L149 81Q157 73 181 63T232 53Q259 53 282 63T322 90T348 131T358 181Q358 235 318 266T211 298Q203 298 196 298T180 296V352Q226 352 257 361T307 387T335 424T344 471Q344 489 336 505T314 534T280 555T236 563Q172 563 129 515L90 558Q151 625 239 625Q275 625 306 613T361 578T397 528T411 467Z" glyph-name="three" horiz-adv-x="500" unicode="3"/><glyph d="M313 624H372V234H452V172H372V0H299V173H48V224L313 624ZM300 513L117 234H300V513Z" glyph-name="four" horiz-adv-x="500" unicode="4"/><glyph d="M106 623H422V560H165L155 381Q204 405 257 405Q297 405 331 391T391 349T431 283T445 196Q445 148 430 110T389 44T327 3T249 -11Q192 -11 144 14T64 85L126 131Q131 128 131 119T133 108Q137 101 147 91T172 72T208 57T253 50Q277 50 299 60T337 90T364 136T374 199Q374 234 364 261T337 308T296 337T246 347Q214 347 183 332T129 288L85 306L106 623Z" glyph-name="five" horiz-adv-x="500" unicode="5"/><glyph d="M287 630Q365 630 424 573L375 520Q366 528 363 537T349 551Q334 561 319 564T289 568Q269 568 243 559T193 523T154 450T136 327Q157 362 192 382T268 402Q303 402 334 388T388 346T425 282T439 198Q439 152 425 114T387 48T331 5T261 -10Q214 -10 178 10T118 69T80 161T67 284Q67 368 82 432T127 541T196 607T287 630ZM140 257Q139 251 139 245T139 233Q139 194 148 161T175 104T215 66T264 52Q307 52 339 89T371 197Q371 235 361 262T336 306T301 332T262 341Q226 341 193 317T140 257Z" glyph-name="six" horiz-adv-x="500" unicode="6"/><glyph d="M432 584Q369 440 315 295T214 0H135Q183 143 235 281T345 557H79V623H432V584Z" glyph-name="seven" horiz-adv-x="500" unicode="7"/><glyph d="M420 483Q420 438 393 398T321 333Q375 308 408 262T441 161Q441 125 426 94T386 39T325 3T250 -10Q210 -10 175 3T115 38T75 91T60 157Q60 211 94 258T185 331Q142 353 116 392T90 477Q90 509 103 537T139 586T192 619T257 631Q292 631 322 620T373 588T407 540T420 483ZM237 303Q192 284 162 247T132 164Q132 141 141 121T167 86T205 62T252 53Q277 53 298 61T336 84T361 118T370 161Q370 207 334 245T237 303ZM174 429Q186 409 205 395T250 367L267 358Q304 378 328 412T352 481Q352 499 345 515T324 544T292 564T253 572Q232 572 215 565T184 545T164 517T157 484Q157 454 174 429Z" glyph-name="eight" horiz-adv-x="500" unicode="8"/><glyph d="M217 -10Q137 -10 79 47L128 100Q133 97 136 88T144 76Q173 53 215 53Q290 53 327 109T368 293Q346 262 312 244T239 226Q204 226 173 240T119 281T82 343T68 424Q68 468 82 505T120 570T177 613T247 629Q338 629 387 551T437 299Q437 220 420 162T372 67T302 10T217 -10ZM364 363Q365 371 365 378T365 394Q365 433 356 465T330 519T293 554T250 567Q199 567 168 529T136 425Q136 393 145 368T168 324T201 297T240 287Q280 287 311 307T364 363Z" glyph-name="nine" horiz-adv-x="500" unicode="9"/><glyph d="M280 406Q298 388 298 365Q298 342 280 325T238 308Q215 308 197 325T179 365Q179 389 197 406T238 423Q261 423 280 406ZM280 87Q298 69 298 46Q298 23 281 6T238 -11Q213 -11 196 5T179 46Q179 70 197 87T238 104Q261 104 280 87Z" glyph-name="colon" horiz-adv-x="500" unicode=":"/><glyph d="M306 20Q306 -59 199 -168L165 -138Q193 -112 211 -82T230 -33Q230 -23 222 -15T205 2T187 20T179 44Q179 69 195 86T238 103Q264 103 285 80T306 20ZM280 406Q298 388 298 365Q298 342 280 325T238 308Q215 308 197 325T179 365Q179 389 197 406T238 423Q261 423 280 406Z" glyph-name="semicolon" horiz-adv-x="500" unicode=";"/><glyph d="M458 496L111 319L461 123V47L35 296V344L458 567V496Z" glyph-name="less" horiz-adv-x="500" unicode="&lt;"/><glyph d="M45 438H456V377H45V438ZM45 231H456V170H45V231Z" glyph-name="equal" horiz-adv-x="500" unicode="="/><glyph d="M42 496V567L466 344V296L40 47V123L389 319L42 496Z" glyph-name="greater" horiz-adv-x="500" unicode="&gt;"/><glyph d="M303 85Q320 66 320 44Q320 21 303 4T261 -13Q237 -13 220 4T202 44Q202 67 219 84T261 102Q284 102 303 85ZM64 561Q96 610 148 637T257 665Q297 665 329 651T385 613T421 557T434 489Q434 461 427 440T410 401T385 371T357 346L335 328Q306 305 299 282T292 226V185H226V226Q226 247 227 264T235 297T255 332T293 375Q328 410 341 438T355 494Q355 516 347 535T325 569T293 592T253 600Q211 600 175 577T115 513L64 561Z" glyph-name="question" horiz-adv-x="500" unicode="?"/><glyph d="M435 30Q370 -11 295 -11Q245 -11 198 8T114 67T54 168T31 313Q31 396 52 456T108 556T185 614T271 633Q313 633 348 619T410 573T450 494T465 378V175H405V213Q366 167 308 167Q279 167 255 177T213 205T185 245T175 291Q175 364 225 404T387 444H402Q402 472 392 496T363 539T320 568T268 579Q236 579 204 564T147 516T105 434T89 314Q89 246 107 196T156 112T224 63T301 46Q358 46 408 79L435 30ZM405 394H388Q310 394 274 369T237 305Q237 267 260 245T311 222Q368 222 386 259T405 375V394Z" glyph-name="at" horiz-adv-x="500" unicode="@"/><glyph d="M15 0L235 634H243L483 0H411L342 182H144L84 0H15ZM326 236L238 474L158 236H326Z" glyph-name="A" horiz-adv-x="500" unicode="A"/><glyph d="M48 623H225Q279 623 318 613T382 581T419 533T432 472Q432 428 408 389T340 334Q366 325 387 309T425 271T449 226T457 175Q457 96 401 48T224 0H48V623ZM117 564V365H215Q257 365 284 372T327 393T352 424T362 464Q360 485 353 503T329 534T288 556T226 564H117ZM117 306V61H236Q316 61 347 94T383 179Q381 207 372 230T345 270T295 297T219 306H117Z" glyph-name="B" horiz-adv-x="500" unicode="B"/><glyph d="M398 482Q398 494 395 500Q375 533 343 552T275 572Q241 572 211 555T158 504T122 422T109 313Q109 254 122 206T158 123T213 69T281 50Q318 50 352 70T408 126L460 92Q445 67 424 48T380 16T333 -3T285 -10Q231 -10 190 8T114 66T60 165T41 308Q41 400 63 461T121 560T197 612T276 628Q307 628 336 619T391 594T437 556T469 505L402 472Q398 475 398 482Z" glyph-name="C" horiz-adv-x="500" unicode="C"/><glyph d="M54 623H199Q279 623 323 601T399 538T445 439T460 308Q460 236 442 179T393 82T311 20T187 -1H54V623ZM120 564V54H184Q291 54 340 118T390 304Q389 426 345 495T195 564H120Z" glyph-name="D" horiz-adv-x="500" unicode="D"/><glyph d="M59 624H441V562H125V357H386V293H125V62H438V0H59V624Z" glyph-name="E" horiz-adv-x="500" unicode="E"/><glyph d="M78 624H437V563H148V367H381V306H148V0H78V624Z" glyph-name="F" horiz-adv-x="500" unicode="F"/><glyph d="M458 525L409 475Q403 479 396 494Q381 527 350 547T276 568Q247 568 217 556T161 515T121 439T105 319Q105 254 118 204T154 121T208 70T277 52Q342 52 395 90V238H282V299H460V55Q371 -10 277 -10Q221 -10 177 12T101 76T53 175T36 304Q36 402 60 468T124 568T203 616T277 629Q334 629 383 601T458 525Z" glyph-name="G" horiz-adv-x="500" unicode="G"/><glyph d="M54 623H132Q133 622 133 620Q133 617 131 612T127 599V356H371V623H447Q448 622 448 620Q448 616 445 612T441 601V-1H370V297H127V0H54V623Z" glyph-name="H" horiz-adv-x="500" unicode="H"/><glyph d="M88 623H397V564H274V57H403V-1H81V58H204V564H88V623Z" glyph-name="I" horiz-adv-x="500" unicode="I"/><glyph d="M172 623H457V564H361V209Q361 148 350 107T313 39T259 1T196 -11Q107 -11 49 58L96 115Q99 112 99 106T103 95L115 83Q119 78 128 73T148 63T172 55T196 51Q246 51 269 86T292 208V564H172V623Z" glyph-name="J" horiz-adv-x="500" unicode="J"/><glyph d="M42 624H126Q126 618 122 612T117 598V336L377 628Q399 623 429 623H455L219 354L471 0L381 -4L166 312L117 258V0H42V624Z" glyph-name="K" horiz-adv-x="500" unicode="K"/><glyph d="M66 623H148Q148 616 144 607T139 589V61H439V0H66V623Z" glyph-name="L" horiz-adv-x="500" unicode="L"/><glyph d="M41 623H96L250 318L407 624H460V0H394V470L259 219H232L106 467V0H41V623Z" glyph-name="M" horiz-adv-x="500" unicode="M"/><glyph d="M50 0V623H118L380 161V624H454Q454 618 451 611T447 597V0H392L117 490V0H50Z" glyph-name="N" horiz-adv-x="500" unicode="N"/><glyph d="M254 -10Q203 -10 162 13T91 79T45 181T29 313Q29 385 45 444T92 544T164 607T256 630Q300 630 338 611T407 554T455 455T471 312Q471 222 452 161T402 61T333 7T254 -10ZM150 115Q197 59 254 59Q281 59 307 70T354 111T388 189T401 314Q401 388 387 435T352 511T307 551T256 564Q225 565 199 553T150 514T113 440T98 319Q98 250 112 197T150 115Z" glyph-name="O" horiz-adv-x="500" unicode="O"/><glyph d="M59 623H259Q311 623 347 610T407 572T442 515T456 447Q454 411 443 380T409 325T351 289T264 275H131V0H59V623ZM131 557V337H256Q324 337 352 366T384 445Q382 468 375 488T352 524T314 548T257 557H131Z" glyph-name="P" horiz-adv-x="500" unicode="P"/><glyph d="M149 514Q97 455 97 323Q97 263 107 214T138 130T189 75T256 55Q281 55 307 67T356 108T391 182T404 294Q404 378 390 431T352 514T301 555T251 567Q221 567 195 552T149 514ZM471 311Q471 173 425 93T287 -7Q289 -40 304 -61T361 -82Q366 -82 377 -81T401 -80T425 -78T442 -77L440 -145H401Q352 -145 319 -140T265 -117T235 -73T226 -7Q188 -2 153 19T90 80T46 175T29 308Q29 402 50 464T105 562T177 614T251 630Q294 630 333 612T405 555T454 456T471 311Z" glyph-name="Q" horiz-adv-x="500" unicode="Q"/><glyph d="M56 623H240Q350 623 398 574T447 445Q447 418 438 392T413 342T373 302T320 278L464 0H386L248 275H127V0H56V623ZM127 557V337H248Q315 337 345 366T375 445Q375 469 367 489T345 524T306 548T248 557H127Z" glyph-name="R" horiz-adv-x="500" unicode="R"/><glyph d="M435 549L391 489Q386 491 386 497T383 507Q364 535 332 552T251 569Q205 569 175 542T144 478Q144 456 151 440T174 409T220 379T298 344Q344 325 374 307T422 267T447 223T455 170Q455 138 443 106T406 48T341 6T247 -10Q126 -10 52 70L93 142Q98 139 98 132T101 121Q124 92 163 73T257 53Q285 53 308 62T349 87T376 124T386 170Q386 189 380 204T358 233T316 260T243 292Q194 311 162 330T109 370T81 413T72 463Q72 497 86 527T126 579T187 614T262 627Q313 627 358 607T435 549Z" glyph-name="S" horiz-adv-x="500" unicode="S"/><glyph d="M31 624H463V561H279V0H208V561H31V624Z" glyph-name="T" horiz-adv-x="500" unicode="T"/><glyph d="M50 623H129Q130 623 130 621Q130 617 126 610T119 591V214Q119 162 129 134T157 87T199 59T252 48Q280 50 304 58T347 85T376 134T387 217V623H454V218Q454 157 441 115T399 45T334 3T251 -11Q206 -11 169 3T106 44T65 110T50 215V623Z" glyph-name="U" horiz-adv-x="500" unicode="U"/><glyph d="M25 624H98L258 145L409 623H478L269 -4H237L25 624Z" glyph-name="V" horiz-adv-x="500" unicode="V"/><glyph d="M17 623H82L149 202L249 577H271L372 200L429 623H488L389 -4H362L255 407L146 -4H117L17 623Z" glyph-name="W" horiz-adv-x="500" unicode="W"/><glyph d="M379 624H449L291 319L468 0H389L251 247L117 0H41L211 318L44 624H119L250 387L379 624Z" glyph-name="X" horiz-adv-x="500" unicode="X"/><glyph d="M28 623H108L261 321L399 623H473L296 246V0H220V246L28 623Z" glyph-name="Y" horiz-adv-x="500" unicode="Y"/><glyph d="M62 623H447V574L138 62H432Q439 62 447 65T463 68V0H50V49L364 560H62V623Z" glyph-name="Z" horiz-adv-x="500" unicode="Z"/><glyph d="M131 670H417V610H195V-32H418V-89H131V670Z" glyph-name="bracketleft" horiz-adv-x="500" unicode="["/><glyph d="M437 -13L378 -42L64 634L123 665L437 -13Z" glyph-name="backslash" horiz-adv-x="500" unicode="\"/><glyph d="M369 670V-89H83V-32H306V610H84V670H369Z" glyph-name="bracketright" horiz-adv-x="500" unicode="]"/><glyph d="M93 367L246 623H268L403 368L350 343L253 518L143 343L93 367Z" glyph-name="asciicircum" horiz-adv-x="500" unicode="^"/><glyph d="M35 -19H466V-80H35V-19Z" glyph-name="underscore" horiz-adv-x="500" unicode="_"/><glyph d="M164 579L139 646L191 671L217 605Q229 574 245 557T275 527T297 501T307 471Q306 451 293 443T269 434Q258 434 249 437T227 453T198 495T164 579Z" glyph-name="grave" horiz-adv-x="500" unicode="`"/><glyph d="M91 403Q152 467 254 467Q338 467 386 425T435 283V0H367V50Q294 -11 203 -11Q167 -11 139 0T90 29T60 70T49 116Q49 185 108 225T280 269H366V286Q366 354 338 381T249 408Q175 408 126 357L91 403ZM369 214H352Q338 214 326 214T301 215Q246 215 211 208T156 187T129 158T121 122Q121 90 149 67T218 44Q248 44 272 53T314 76T343 104T359 130Q369 150 369 184V214Z" glyph-name="a" horiz-adv-x="500" unicode="a"/><glyph d="M60 665H144V663Q144 658 139 654T133 643V387Q155 424 192 446T269 468Q307 468 341 454T401 410T442 336T457 233Q457 171 441 126T397 50T336 4T266 -11Q224 -11 189 8T131 60L106 0H60V665ZM185 70Q204 60 219 57T247 53Q267 53 291 60T335 87T369 138T383 219Q383 310 346 358T239 406Q214 406 186 388T145 340Q133 310 133 242Q133 200 135 171T143 123T159 91T185 70Z" glyph-name="b" horiz-adv-x="500" unicode="b"/><glyph d="M457 381L406 322Q401 325 401 328T401 338T393 353T369 377Q335 405 276 405Q247 405 221 393T174 359T142 305T130 234Q130 195 142 162T175 105T225 68T289 54Q358 54 408 110L450 61Q382 -11 283 -11Q234 -11 193 7T121 57T73 132T56 228Q56 279 73 323T120 398T193 448T286 466Q340 466 384 444T457 381Z" glyph-name="c" horiz-adv-x="500" unicode="c"/><glyph d="M371 390V665H448Q448 659 443 652T438 637L439 42Q439 18 444 0H372Q368 12 368 34V73Q346 35 308 13T231 -10Q193 -10 160 5T101 50T60 125T45 233Q45 296 62 340T106 413T168 455T237 469Q285 469 319 448T371 390ZM158 376Q115 337 115 244Q115 158 148 106T245 53Q260 53 277 58T309 75T336 101T354 135Q365 171 365 231Q365 269 362 294T353 338T336 367T311 388Q293 399 278 404T248 410Q219 410 199 402T158 376Z" glyph-name="d" horiz-adv-x="500" unicode="d"/><glyph d="M259 468Q295 468 329 455T388 416T429 348T445 251Q445 243 445 235T443 218H118Q120 170 134 138T171 85T220 57T274 48Q345 48 392 99L432 60Q374 -10 272 -10Q222 -10 181 5T110 51T65 125T49 227Q49 285 65 330T110 405T177 452T259 468ZM121 274H372Q372 278 372 281T373 290Q373 315 364 337T338 376T301 403T254 413Q207 413 169 380T121 274Z" glyph-name="e" horiz-adv-x="500" unicode="e"/><glyph d="M343 671Q430 671 483 608L450 542Q442 542 442 550T440 562Q424 585 398 599T340 614Q314 614 295 607T261 582T239 536T231 465V430H381V373H231V0H162V373H63V430H162V475Q162 528 175 565T214 626T272 660T343 671Z" glyph-name="f" horiz-adv-x="500" unicode="f"/><glyph d="M155 385Q140 370 133 352T126 314Q126 294 134 276T155 244T187 222T226 214Q247 214 265 222T297 244T319 276T327 314Q327 334 319 352T297 385T265 407T226 415Q185 415 155 385ZM339 428Q387 469 453 469H466L475 410Q468 411 462 411T448 412Q404 412 369 390Q392 355 392 313Q392 281 379 253T344 203T291 169T227 156Q199 156 169 167Q137 136 137 115Q137 98 156 89T210 79Q229 79 248 80T285 82Q330 82 362 74T415 50T445 13T455 -32Q455 -59 442 -84T403 -129T338 -160T245 -172Q190 -172 151 -164T87 -140T51 -106T38 -64Q38 -10 113 37Q76 56 76 100Q76 143 128 186Q96 207 78 240T60 310Q60 344 74 373T111 425T165 459T228 472Q295 472 339 428ZM161 24Q104 -8 104 -46Q104 -66 115 -79T146 -101T192 -114T248 -118Q309 -118 349 -96T389 -37Q387 -10 367 5T302 20Q297 20 292 20T282 19Q244 19 214 20T161 24Z" glyph-name="g" horiz-adv-x="500" unicode="g"/><glyph d="M70 0V665H153Q153 664 153 664T154 663Q154 660 150 655T143 641V376Q170 418 210 443T293 468Q324 468 349 458T394 424T423 365T433 277V0H362V275Q362 347 338 376T278 405Q255 405 232 395T188 367T155 323T143 263V0H70Z" glyph-name="h" horiz-adv-x="500" unicode="h"/><glyph d="M106 457H289V58H396V0H100V58H217V399H106V457ZM218 641Q233 656 254 656Q275 656 290 641T306 604Q306 583 291 568T254 553Q233 553 218 568T203 604Q203 626 218 641Z" glyph-name="i" horiz-adv-x="500" unicode="i"/><glyph d="M126 457H369V22Q369 -30 355 -66T317 -126T259 -160T188 -174Q100 -174 48 -110L95 -48Q100 -53 100 -58T104 -69T116 -82T146 -101Q168 -112 193 -112Q238 -112 267 -82T296 18V398H126V457ZM296 641Q311 656 333 656Q354 656 369 641T385 604Q385 583 370 568T333 553Q312 553 297 568T281 604Q281 626 296 641Z" glyph-name="j" horiz-adv-x="500" unicode="j"/><glyph d="M66 665H148Q148 659 144 652T139 639V247L368 459Q391 454 421 454H447L255 273L479 0L386 -4L199 229L139 173V0H66V665Z" glyph-name="k" horiz-adv-x="500" unicode="k"/><glyph d="M85 665H287V58H421V0H79V58H214V607H85V665Z" glyph-name="l" horiz-adv-x="500" unicode="l"/><glyph d="M38 0V457H104V412Q120 437 145 452T198 468Q227 468 249 449T278 401Q291 431 319 449T380 468Q427 468 449 435T469 351V0H403V324Q403 355 400 373T390 400T376 412T358 415Q345 415 332 405T309 378T293 342T287 302V0H220V318Q220 375 210 394T173 413Q149 413 127 385T104 305V0H38Z" glyph-name="m" horiz-adv-x="500" unicode="m"/><glyph d="M68 0V457H142V376Q168 418 208 443T291 468Q321 468 347 458T392 424T421 365T432 277V0H361V275Q361 347 337 376T277 405Q254 405 230 395T187 367T155 322T142 263V0H68Z" glyph-name="n" horiz-adv-x="500" unicode="n"/><glyph d="M254 467Q296 467 333 451T399 403T443 328T460 228Q460 172 444 128T400 53T334 5T253 -12Q209 -12 171 6T103 55T57 131T40 226Q40 277 57 322T104 398T173 448T254 467ZM388 226Q388 269 377 302T346 359T303 394T251 406Q224 406 200 394T157 359T127 304T116 230Q116 190 127 157T156 100T200 63T253 50Q281 50 305 61T348 95T377 151T388 226Z" glyph-name="o" horiz-adv-x="500" unicode="o"/><glyph d="M60 457H133V387Q156 424 194 445T272 467Q310 467 344 453T405 409T447 336T463 232Q463 172 447 126T403 50T342 4T271 -12Q229 -12 193 7T134 60V-167H60V457ZM133 190Q135 116 167 84T246 52Q271 52 296 60T342 87T375 139T388 219Q388 307 352 355T249 406Q229 406 208 399T171 375T144 330T133 259V190Z" glyph-name="p" horiz-adv-x="500" unicode="p"/><glyph d="M374 390V457H442V-167H370V73Q349 35 311 13T230 -10Q191 -10 157 7T97 57T57 134T42 234Q42 289 58 332T101 406T165 453T243 469Q327 469 367 402Q374 392 374 390ZM243 410Q217 410 194 400T154 368T126 315T115 239Q115 195 125 161T154 102T195 66T246 53Q303 53 335 96T368 235Q368 333 334 371T243 410Z" glyph-name="q" horiz-adv-x="500" unicode="q"/><glyph d="M99 457H174L172 369Q193 417 238 442T336 468Q410 468 458 418L425 349Q414 364 405 374T386 391T363 402T332 406Q299 406 270 391T220 350T185 291T172 222V-1H99V457Z" glyph-name="r" horiz-adv-x="500" unicode="r"/><glyph d="M432 396L390 333Q385 334 385 341T383 351Q365 374 332 393T257 413Q238 413 221 409T190 396T168 376T160 347Q160 335 166 326T185 307T221 289T283 269Q369 246 404 215T440 137Q440 107 427 80T389 33T329 2T250 -10Q135 -10 57 62L98 134Q101 131 102 125T109 109T131 89T180 63Q195 56 214 53T252 50Q272 50 292 55T329 69T356 92T366 123Q366 149 342 167T254 204Q210 217 196 222Q160 236 144 246T115 271T94 304T86 345Q86 369 99 391T135 430T191 457T262 468Q367 468 432 396Z" glyph-name="s" horiz-adv-x="500" unicode="s"/><glyph d="M188 579L267 592Q267 583 265 576T261 565L249 457H399V398H249Q240 309 240 231Q240 183 242 150T252 98T277 69T320 58Q366 58 422 99L444 42Q375 -9 302 -9Q230 -9 197 34T167 176Q167 212 169 268T177 398H70V457H180L188 579Z" glyph-name="t" horiz-adv-x="500" unicode="t"/><glyph d="M63 457H135V202Q135 158 143 129T165 81T198 55T239 47Q263 49 285 59T324 87T352 135T362 205V457H435V41Q435 18 440 0H364Q363 7 362 15T362 35L363 70Q341 32 304 11T221 -11Q186 -11 158 1T108 40T74 106T62 202L63 457Z" glyph-name="u" horiz-adv-x="500" unicode="u"/><glyph d="M50 432L40 457H126Q126 450 125 445T123 435Q123 433 124 432L256 98L330 268Q354 323 369 370T392 457H457Q437 373 388 257L277 -3H221L50 432Z" glyph-name="v" horiz-adv-x="500" unicode="v"/><glyph d="M16 457H89V453Q89 447 87 440T85 425Q85 421 86 419L153 90L231 414H275L372 91Q385 179 393 236T406 330T412 392T414 442V457H481Q466 341 447 227T405 -1H337L253 295L173 -1H108L16 457Z" glyph-name="w" horiz-adv-x="500" unicode="w"/><glyph d="M362 457H436L288 235L456 0H374L248 178L129 0H47L208 232L50 457H129L248 288L362 457Z" glyph-name="x" horiz-adv-x="500" unicode="x"/><glyph d="M59 425L46 457H135Q135 449 133 444T131 433Q131 429 133 427L267 91L354 336Q367 371 375 401T388 457H463Q454 431 444 398T418 325L294 -2L275 -52Q251 -119 214 -146T127 -174Q62 -174 22 -135L60 -71Q63 -74 65 -80T68 -89Q68 -89 72 -93T82 -102T99 -111T121 -115Q150 -115 172 -97T217 -32L231 2L59 425Z" glyph-name="y" horiz-adv-x="500" unicode="y"/><glyph d="M71 457H426V408L148 62H419Q426 62 434 65T450 68V0H50V49L333 394H71V457Z" glyph-name="z" horiz-adv-x="500" unicode="z"/><glyph d="M159 16L163 116Q163 182 140 205T73 228H53V284H72Q118 284 141 309T165 391L163 463Q163 637 345 637H408V580H326Q233 580 233 474L235 404Q235 293 148 256Q233 228 233 101L230 17Q230 -51 259 -77T356 -103H407V-159H371Q323 -159 285 -156T215 -129Q159 -85 159 16Z" glyph-name="braceleft" horiz-adv-x="500" unicode="{"/><glyph d="M217 652H284V-151H217V652Z" glyph-name="bar" horiz-adv-x="500" unicode="|"/><glyph d="M338 463L335 391Q335 334 359 309T428 284H448V228H427Q384 228 361 205T338 116L341 16Q341 -73 301 -116T175 -159H93V-103H148Q170 -103 183 -102T205 -99T219 -93T230 -86Q271 -57 271 17L268 101Q268 227 352 256Q265 293 265 404L268 474Q268 531 243 555T167 580H92V637H123Q157 637 195 635T265 613T317 559T338 463Z" glyph-name="braceright" horiz-adv-x="500" unicode="}"/><glyph d="M91 342L41 375Q65 414 101 439T172 464Q207 464 231 453T271 427Q312 389 339 389Q367 389 386 405T430 454L476 416Q464 398 448 381T415 352T380 332T344 324Q310 324 286 336T248 364Q211 404 174 404Q129 404 91 342Z" glyph-name="asciitilde" horiz-adv-x="500" unicode="~"/><glyph glyph-name="nbspace" horiz-adv-x="500"/><glyph d="M197 567Q180 583 180 608Q180 632 198 650T239 668Q262 668 280 650T299 608Q299 585 281 568T239 550Q214 550 197 567ZM238 -11Q215 -11 201 9T187 72Q187 83 188 98T191 134L196 186L214 463H264L279 186Q280 171 281 154T284 120T287 87T289 61Q289 26 275 8T238 -11Z" glyph-name="exclamdown" horiz-adv-x="500" unicode="¡"/><glyph d="M285 624L352 617Q352 611 348 604T343 589L333 507Q410 492 451 430L407 373Q403 376 403 385T399 399Q370 434 325 447L279 97Q354 97 410 153L446 104Q381 33 278 33H270L255 -79L198 -72L212 41Q137 62 93 124T48 280Q48 327 64 368T110 440T180 491T271 512L285 624ZM220 108L263 454Q231 452 205 439T160 404T130 353T119 288Q119 218 146 172T220 108Z" glyph-name="cent" horiz-adv-x="500" unicode="¢"/><glyph d="M418 572L374 517Q366 525 364 533T349 547Q325 566 290 566Q269 566 250 559T214 537T189 499T179 443Q179 418 187 378H287V321H201Q214 265 214 224Q214 148 178 90Q185 91 194 91T215 92Q225 92 245 86T288 72T334 58T373 51Q410 51 444 79L470 27Q417 -15 366 -15Q352 -15 329 -8T280 7T227 23T180 30Q136 30 65 -8L39 49Q62 60 75 66T95 78T105 88T113 100Q148 155 148 222Q148 259 133 321H67V378H119Q112 412 112 442Q112 483 126 516T164 573T220 610T288 623Q362 623 418 572Z" glyph-name="sterling" horiz-adv-x="500" unicode="£"/><glyph d="M68 492L104 527L160 471Q201 500 251 500Q298 500 340 472L396 527L432 492L376 437Q406 395 406 345Q406 295 377 254L432 199L396 164L341 219Q321 204 298 197T251 190Q201 190 159 220L104 164L68 199L124 256Q110 276 103 299T96 345Q96 369 103 392T125 435L68 492ZM321 416Q291 446 250 446Q230 446 212 438T180 416T158 384T150 345Q150 325 158 307T179 275T211 253T250 245Q271 245 289 253T321 275T343 307T351 345Q351 386 321 416Z" glyph-name="currency" horiz-adv-x="500" unicode="¤"/><glyph d="M36 624H114L259 363L392 623H466L292 295V274H426V217H292V154H426V98H292V0H224V98H84V154H224V217H84V274H224V295L36 624Z" glyph-name="yen" horiz-adv-x="500" unicode="¥"/><glyph d="M217 652H284V295H217V652ZM284 -151H217V196H284V-151Z" glyph-name="brokenbar" horiz-adv-x="500" unicode="¦"/><glyph d="M413 583L356 533Q351 538 350 544Q348 557 341 569T320 591T291 607T256 613Q238 613 222 607T193 591T174 566T167 536Q167 512 176 498T204 471T254 447T326 419Q418 375 418 305Q418 275 398 249T344 209Q408 166 408 98Q408 65 395 37T360 -11T306 -42T238 -54Q187 -54 142 -33T65 31L117 92Q123 90 124 87T126 79T133 64T154 41Q185 12 234 12Q283 12 310 35T337 91Q337 108 332 121T313 146T277 168T220 188Q143 213 111 242T79 316Q79 349 101 376T161 417Q94 457 94 530Q94 559 106 584T141 629T193 660T257 672Q306 672 347 649T413 583ZM197 399Q177 392 165 375T152 336Q152 303 176 282T256 244Q273 239 286 236T307 228Q343 247 343 292Q343 325 319 345T240 384L197 399Z" glyph-name="section" horiz-adv-x="500" unicode="§"/><glyph d="M198 650Q213 635 213 614Q213 594 198 579T163 564Q142 564 127 579T112 614Q112 634 127 649T163 665Q183 665 198 650ZM376 650Q391 635 391 614Q391 594 376 579T341 564Q320 564 306 578T291 614Q291 635 305 650T341 665Q361 665 376 650Z" glyph-name="dieresis" horiz-adv-x="500" unicode="¨"/><glyph d="M387 331L335 312Q331 319 331 324T331 334T324 346T302 364Q285 374 262 374Q248 374 232 369T203 353T180 324T171 281Q171 259 178 240T198 206T228 183T265 174Q289 174 309 186T340 219L384 190Q363 158 330 140T261 122Q230 122 204 134T158 168T127 217T115 276Q115 307 127 334T159 381T203 412T254 424Q308 424 342 399T387 331ZM426 93Q355 19 255 19Q205 19 161 39T85 94T33 175T14 274Q14 327 33 373T85 455T162 510T256 530Q305 530 349 510T426 455T478 374T498 274Q498 168 426 93ZM257 488Q216 488 180 472T117 426T75 358T59 274Q59 230 74 191T117 124T180 79T257 62Q297 62 333 79T396 125T439 192T455 275Q455 319 440 357T397 425T334 471T257 488Z" glyph-name="copyright" horiz-adv-x="500" unicode="©"/><glyph d="M325 488Q325 569 251 569Q189 569 157 525L123 566Q173 622 257 622Q320 620 354 589T389 495V485V267H326V300Q280 257 224 257Q169 257 136 288T102 362Q102 404 133 434T219 472Q251 475 273 475T311 476H325V488ZM328 424H312Q270 424 242 422T197 413T173 394T166 363Q166 344 182 328T231 311Q244 311 261 316T293 332T318 361T328 406V424ZM76 206H425V152H76V206Z" glyph-name="ordfeminine" horiz-adv-x="500" unicode="ª"/><glyph d="M249 253L400 400L439 359L318 241L446 101L406 61L249 230V253ZM67 253L219 400L258 359L137 241L265 101L225 61L67 230V253Z" glyph-name="guillemotleft" horiz-adv-x="500" unicode="«"/><glyph d="M91 347H414V157H350V284H91V347Z" glyph-name="logicalnot" horiz-adv-x="500" unicode="¬"/><glyph d="M71 348H431V281H71V348Z" glyph-name="softhyphen" horiz-adv-x="500" unicode="­"/><glyph d="M426 93Q355 19 255 19Q205 19 161 39T85 94T33 175T14 274Q14 327 33 373T85 455T162 510T256 530Q305 530 349 510T426 455T478 374T498 274Q498 168 426 93ZM257 488Q216 488 180 472T117 426T75 358T59 274Q59 230 74 191T117 124T180 79T257 62Q297 62 333 79T396 125T439 192T455 275Q455 319 440 357T397 425T334 471T257 488ZM155 133V425H249Q314 425 341 401T369 340Q369 315 355 293T312 263L376 138L329 131L267 256H201V133H155ZM253 296Q324 296 324 340Q324 384 250 384H201V296H253Z" glyph-name="registered" horiz-adv-x="500" unicode="®"/><glyph d="M123 621H377V565H123V621Z" glyph-name="overscore" horiz-adv-x="500" unicode="¯"/><glyph d="M351 599Q391 560 391 504Q391 477 381 453T352 410T309 381T256 370Q228 370 204 380T161 409T132 451T121 504Q121 532 132 557T161 600T204 628T256 639Q312 639 351 599ZM309 562Q288 586 257 586Q242 586 228 580T204 562T188 536T182 505Q182 473 203 449T256 425Q288 425 309 449T331 505Q331 537 309 562Z" glyph-name="degree" horiz-adv-x="500" unicode="°"/><glyph d="M46 80H457V17H46V80ZM222 575H285V404H456V343H285V155H222V343H45V404H222V575Z" glyph-name="plusminus" horiz-adv-x="500" unicode="±"/><glyph d="M111 554Q134 593 173 615T264 637Q289 637 312 629T353 605T381 569T392 523Q392 503 387 488T370 458T336 426T280 383Q254 363 233 345T194 307H376Q381 307 386 311T397 316H400V253H121V297Q148 333 177 362T252 425L280 447Q306 467 318 487T331 525Q331 550 311 568T260 586Q201 586 168 544Q165 540 163 534T158 523L111 554Z" glyph-name="uni00B2" horiz-adv-x="500" unicode="²"/><glyph d="M258 638Q285 638 309 630T351 606T379 572T389 530Q389 503 373 482T332 452Q364 447 385 423T406 366Q406 342 394 322T361 285T313 260T255 251Q169 251 112 316L159 368Q163 363 165 354T173 340Q206 307 249 307Q292 307 318 326T344 372Q344 398 321 412T256 427Q248 427 241 427T226 425V476Q231 475 236 475T246 475Q291 475 310 490T329 527Q329 549 308 567T255 585Q198 585 161 539L125 576Q178 638 258 638Z" glyph-name="uni00B3" horiz-adv-x="500" unicode="³"/><glyph d="M292 699L355 657L254 522L204 552L292 699Z" glyph-name="acute" horiz-adv-x="500" unicode="´"/><glyph d="M372 116Q372 47 412 47Q426 47 440 59T461 84L467 96L494 45Q457 -10 406 -10Q374 -10 351 12T324 67Q307 28 273 9T201 -10Q164 -10 133 7T87 60Q87 3 87 -53T86 -167H24Q24 -153 25 -125T29 -62T34 12T39 87T42 153T44 202V457H110V186Q110 144 118 118T139 75T170 52T207 43Q226 45 244 53T276 78T299 121T308 183V192V457H372V116Z" glyph-name="micro" horiz-adv-x="500" unicode="µ"/><glyph d="M436 665V-68H378V608H302V-68H243V322Q205 324 173 339T116 377T78 431T64 496Q64 530 76 561T118 615T195 652T311 665H436Z" glyph-name="paragraph" horiz-adv-x="500" unicode="¶"/><glyph d="M280 371Q298 354 298 331Q298 308 281 291T238 274Q213 274 196 290T179 331Q179 355 197 371T238 388Q261 388 280 371Z" glyph-name="middot" horiz-adv-x="500" unicode="·"/><glyph d="M327 -109Q327 -85 280 -85H250L261 0H305L299 -47L316 -48Q384 -53 384 -103Q384 -131 356 -154T268 -177Q209 -177 157 -140L182 -98Q225 -134 281 -134Q307 -134 317 -127T327 -109Z" glyph-name="cedilla" horiz-adv-x="500" unicode="¸"/><glyph d="M299 633V253H235V553L138 528L122 559L255 633H299Z" glyph-name="uni00B9" horiz-adv-x="500" unicode="¹"/><glyph d="M96 434Q96 476 108 510T142 569T191 608T249 622Q280 622 307 610T354 575T385 519T397 441Q397 398 385 364T351 305T303 269T245 256Q214 256 187 269T140 305T108 361T96 434ZM247 566Q210 566 183 532T156 438Q156 378 183 346T246 314Q283 314 310 345T337 437Q337 498 311 532T247 566ZM76 206H425V152H76V206Z" glyph-name="ordmasculine" horiz-adv-x="500" unicode="º"/><glyph d="M265 253V230L107 61L67 101L195 241L74 359L113 400L265 253ZM446 253V230L288 61L249 101L376 241L255 359L294 400L446 253Z" glyph-name="guillemotright" horiz-adv-x="500" unicode="»"/><glyph d="M76 -16L389 665L437 638L123 -42L76 -16ZM396 242H427V45H477V8H427V-70H381V8H236V37L396 242ZM382 164L288 45H382V164ZM146 677V374H95V614L18 594L5 619L112 677H146Z" glyph-name="onequarter" horiz-adv-x="500" unicode="¼"/><glyph d="M76 -16L389 665L437 638L123 -42L76 -16ZM263 168Q282 200 313 217T389 235Q410 235 427 228T458 207T479 178T487 143Q487 127 484 115T471 91T444 65T398 31Q354 -1 329 -29H475Q479 -29 484 -26T494 -22V-73H270V-38Q288 -14 314 12T375 65L398 82Q439 117 439 140Q439 165 423 179T379 194Q333 194 308 160Q305 157 304 152T300 143L263 168ZM146 677V374H95V614L18 594L5 619L112 677H146Z" glyph-name="onehalf" horiz-adv-x="500" unicode="½"/><glyph d="M81 -16L394 665L442 638L128 -42L81 -16ZM128 684Q150 684 169 677T202 659T224 632T232 598Q232 576 220 559T187 535Q213 531 229 512T246 467Q246 447 236 431T210 401T171 381T125 374Q57 374 11 426L49 468Q52 464 54 457T60 445Q74 431 90 425T123 419Q152 419 174 433T197 467Q197 491 181 503T126 515Q120 515 114 515T102 514V554Q107 552 113 552T124 553Q156 553 170 565T185 594Q185 611 169 626T125 642Q80 642 51 604L22 634Q64 684 128 684ZM396 242H427V45H477V8H427V-70H381V8H236V37L396 242ZM382 164L288 45H382V164Z" glyph-name="threequarters" horiz-adv-x="500" unicode="¾"/><glyph d="M198 567Q181 583 181 608Q181 632 199 648T240 665Q263 665 281 648T300 608Q300 585 283 568T240 551Q215 551 198 567ZM438 91Q406 42 354 15T245 -13Q203 -13 170 1T114 39T79 95T67 163Q67 215 90 248T144 307L166 325Q194 348 202 371T210 426V468H275V426Q275 403 274 387T266 354T246 320T209 278Q173 240 160 214T146 158Q146 136 154 117T177 83T209 61T248 52Q290 52 326 75T387 139L438 91Z" glyph-name="questiondown" horiz-adv-x="500" unicode="¿"/><glyph d="M15 0L235 634H243L483 0H411L342 182H144L84 0H15ZM326 236L238 474L158 236H326ZM439 791L592 702L569 660L399 721L439 791Z" glyph-name="Agrave" horiz-adv-x="500" unicode="À"/><glyph d="M15 0L235 634H243L483 0H411L342 182H144L84 0H15ZM326 236L238 474L158 236H326ZM565 791L605 721L436 660L413 702L565 791Z" glyph-name="Aacute" horiz-adv-x="500" unicode="Á"/><glyph d="M15 0L235 634H243L483 0H411L342 182H144L84 0H15ZM326 236L238 474L158 236H326ZM359 692L490 791H512L635 693L602 655L499 726L387 658L359 692Z" glyph-name="Acircumflex" horiz-adv-x="500" unicode="Â"/><glyph d="M15 0L235 634H243L483 0H411L342 182H144L84 0H15ZM326 236L238 474L158 236H326ZM131 683L86 715Q141 802 199 802Q217 802 236 791T273 765T304 739T325 727Q348 727 359 742T387 780L425 740Q395 704 373 687T328 669Q305 669 287 681T254 707T225 733T200 745Q178 745 165 732T131 683Z" glyph-name="Atilde" horiz-adv-x="500" unicode="Ã"/><glyph d="M15 0L235 634H243L483 0H411L342 182H144L84 0H15ZM326 236L238 474L158 236H326ZM187 774Q202 759 202 738Q202 718 187 703T151 688Q131 688 116 703T101 738Q101 758 116 773T151 789Q172 789 187 774ZM365 774Q380 759 380 738Q380 718 365 703T329 688Q309 688 295 702T280 738Q280 759 294 774T329 789Q350 789 365 774Z" glyph-name="Adieresis" horiz-adv-x="500" unicode="Ä"/><glyph d="M241 753Q224 753 212 740T199 707Q199 688 211 675T241 662Q258 662 270 675T282 707Q282 727 270 740T241 753ZM326 236L238 474L158 236H326ZM248 619L483 0H411L342 182H144L84 -1H15L230 619Q195 623 172 648T148 708Q148 726 155 741T174 769T204 788T240 795Q259 795 275 788T304 769T324 742T331 708Q331 673 308 648T248 619Z" glyph-name="Aring" horiz-adv-x="500" unicode="Å"/><glyph d="M200 624H484V562H313V357H458V293H313V62H482V0H252V169H122L68 0H4L200 624ZM252 562H241L136 227H252V562Z" glyph-name="AE" horiz-adv-x="500" unicode="Æ"/><glyph d="M327 -109Q327 -85 280 -85H250L260 -10Q218 -6 179 14T108 72T59 167T41 303Q41 399 64 462T121 561T197 613T276 628Q307 628 336 619T391 594T437 556T469 505L402 472Q398 475 398 482Q398 494 395 500Q375 533 343 552T275 572Q241 572 211 555T159 504T123 422T109 313Q109 254 122 206T158 123T213 69T281 50Q318 50 352 70T408 126L460 92Q434 50 393 24T304 -9L299 -47L316 -48Q384 -53 384 -103Q384 -131 356 -154T268 -177Q209 -177 157 -140L182 -98Q225 -134 281 -134Q307 -134 317 -127T327 -109Z" glyph-name="Ccedilla" horiz-adv-x="500" unicode="Ç"/><glyph d="M59 624H441V562H125V357H386V293H125V62H438V0H59V624ZM439 791L592 702L569 660L399 721L439 791Z" glyph-name="Egrave" horiz-adv-x="500" unicode="È"/><glyph d="M59 624H441V562H125V357H386V293H125V62H438V0H59V624ZM325 791L365 721L196 660L173 702L325 791Z" glyph-name="Eacute" horiz-adv-x="500" unicode="É"/><glyph d="M59 624H441V562H125V357H386V293H125V62H438V0H59V624ZM367 692L498 791H520L643 693L610 655L507 726L395 658L367 692Z" glyph-name="Ecircumflex" horiz-adv-x="500" unicode="Ê"/><glyph d="M59 624H441V562H125V357H386V293H125V62H438V0H59V624ZM193 774Q208 759 208 738Q208 718 193 703T157 688Q137 688 122 703T107 738Q107 758 122 773T157 789Q178 789 193 774ZM371 774Q386 759 386 738Q386 718 371 703T335 688Q315 688 301 702T286 738Q286 759 300 774T335 789Q356 789 371 774Z" glyph-name="Edieresis" horiz-adv-x="500" unicode="Ë"/><glyph d="M88 623H397V564H274V57H403V-1H81V58H204V564H88V623ZM439 791L592 702L569 660L399 721L439 791Z" glyph-name="Igrave" horiz-adv-x="500" unicode="Ì"/><glyph d="M88 623H397V564H274V57H403V-1H81V58H204V564H88V623ZM325 791L365 721L196 660L173 702L325 791Z" glyph-name="Iacute" horiz-adv-x="500" unicode="Í"/><glyph d="M88 623H397V564H274V57H403V-1H81V58H204V564H88V623ZM358 692L489 791H511L634 693L601 655L498 726L386 658L358 692Z" glyph-name="Icircumflex" horiz-adv-x="500" unicode="Î"/><glyph d="M88 623H397V564H274V57H403V-1H81V58H204V564H88V623ZM190 774Q205 759 205 738Q205 718 190 703T154 688Q134 688 119 703T104 738Q104 758 119 773T154 789Q175 789 190 774ZM368 774Q383 759 383 738Q383 718 368 703T332 688Q312 688 298 702T283 738Q283 759 297 774T332 789Q353 789 368 774Z" glyph-name="Idieresis" horiz-adv-x="500" unicode="Ï"/><glyph d="M79 623H218Q286 623 332 600T408 536T452 436T466 306Q466 261 456 217T428 134T382 65T319 18Q280 -1 206 -1H79V301H30V359H79V623ZM143 301V57H203Q299 57 349 122T399 306Q399 426 355 495T214 564H143V359H248V301H143Z" glyph-name="Eth" horiz-adv-x="500" unicode="Ð"/><glyph d="M50 0V623H118L380 161V624H454Q454 618 451 611T447 597V0H392L117 490V0H50ZM136 683L91 715Q146 802 204 802Q222 802 241 791T278 765T309 739T330 727Q353 727 364 742T392 780L430 740Q400 704 378 687T333 669Q310 669 292 681T259 707T230 733T205 745Q183 745 170 732T136 683Z" glyph-name="Ntilde" horiz-adv-x="500" unicode="Ñ"/><glyph d="M254 -10Q203 -10 162 13T91 79T45 181T29 313Q29 385 45 444T92 544T164 607T256 630Q300 630 338 611T407 554T455 455T471 312Q471 222 452 161T402 61T333 7T254 -10ZM150 115Q197 59 254 59Q281 59 307 70T354 111T388 189T401 314Q401 388 387 435T352 511T307 551T256 564Q225 565 199 553T150 514T113 440T98 319Q98 250 112 197T150 115ZM439 791L592 702L569 660L399 721L439 791Z" glyph-name="Ograve" horiz-adv-x="500" unicode="Ò"/><glyph d="M254 -10Q203 -10 162 13T91 79T45 181T29 313Q29 385 45 444T92 544T164 607T256 630Q300 630 338 611T407 554T455 455T471 312Q471 222 452 161T402 61T333 7T254 -10ZM150 115Q197 59 254 59Q281 59 307 70T354 111T388 189T401 314Q401 388 387 435T352 511T307 551T256 564Q225 565 199 553T150 514T113 440T98 319Q98 250 112 197T150 115ZM325 791L365 721L196 660L173 702L325 791Z" glyph-name="Oacute" horiz-adv-x="500" unicode="Ó"/><glyph d="M254 -10Q203 -10 162 13T91 79T45 181T29 313Q29 385 45 444T92 544T164 607T256 630Q300 630 338 611T407 554T455 455T471 312Q471 222 452 161T402 61T333 7T254 -10ZM150 115Q197 59 254 59Q281 59 307 70T354 111T388 189T401 314Q401 388 387 435T352 511T307 551T256 564Q225 565 199 553T150 514T113 440T98 319Q98 250 112 197T150 115ZM114 692L245 791H267L390 693L357 655L254 726L142 658L114 692Z" glyph-name="Ocircumflex" horiz-adv-x="500" unicode="Ô"/><glyph d="M254 -10Q203 -10 162 13T91 79T45 181T29 313Q29 385 45 444T92 544T164 607T256 630Q300 630 338 611T407 554T455 455T471 312Q471 222 452 161T402 61T333 7T254 -10ZM150 115Q197 59 254 59Q281 59 307 70T354 111T388 189T401 314Q401 388 387 435T352 511T307 551T256 564Q225 565 199 553T150 514T113 440T98 319Q98 250 112 197T150 115ZM136 683L91 715Q146 802 204 802Q222 802 241 791T278 765T309 739T330 727Q353 727 364 742T392 780L430 740Q400 704 378 687T333 669Q310 669 292 681T259 707T230 733T205 745Q183 745 170 732T136 683Z" glyph-name="Otilde" horiz-adv-x="500" unicode="Õ"/><glyph d="M254 -10Q203 -10 162 13T91 79T45 181T29 313Q29 385 45 444T92 544T164 607T256 630Q300 630 338 611T407 554T455 455T471 312Q471 222 452 161T402 61T333 7T254 -10ZM150 115Q197 59 254 59Q281 59 307 70T354 111T388 189T401 314Q401 388 387 435T352 511T307 551T256 564Q225 565 199 553T150 514T113 440T98 319Q98 250 112 197T150 115ZM193 774Q208 759 208 738Q208 718 193 703T157 688Q137 688 122 703T107 738Q107 758 122 773T157 789Q178 789 193 774ZM371 774Q386 759 386 738Q386 718 371 703T335 688Q315 688 301 702T286 738Q286 759 300 774T335 789Q356 789 371 774Z" glyph-name="Odieresis" horiz-adv-x="500" unicode="Ö"/><glyph d="M382 503L430 459L300 325L427 191L381 145L254 278L129 149L85 193L211 324L85 457L132 503L256 372L382 503Z" glyph-name="multiply" horiz-adv-x="500" unicode="×"/><glyph d="M150 513Q127 487 113 438T98 322Q98 212 132 145L336 528Q298 564 252 564Q226 564 200 552T150 513ZM413 545Q471 466 471 310Q471 218 452 157T402 59T332 6T254 -10Q225 -10 196 -1T138 30L88 -63L36 -36L95 74Q29 159 29 313Q29 384 45 442T90 542T161 607T254 630Q284 630 313 620T369 590L415 677L469 648L413 545ZM374 472L171 92Q208 59 248 59Q323 59 362 121T401 314Q401 413 374 472Z" glyph-name="Oslash" horiz-adv-x="500" unicode="Ø"/><glyph d="M50 623H129Q130 623 130 621Q130 617 126 610T119 591V214Q119 162 129 134T157 87T199 59T252 48Q280 50 304 58T347 85T376 134T387 217V623H454V218Q454 157 441 115T399 45T334 3T251 -11Q206 -11 169 3T106 44T65 110T50 215V623ZM438 791L591 702L568 660L398 721L438 791Z" glyph-name="Ugrave" horiz-adv-x="500" unicode="Ù"/><glyph d="M50 623H129Q130 623 130 621Q130 617 126 610T119 591V214Q119 162 129 134T157 87T199 59T252 48Q280 50 304 58T347 85T376 134T387 217V623H454V218Q454 157 441 115T399 45T334 3T251 -11Q206 -11 169 3T106 44T65 110T50 215V623ZM325 791L365 721L196 660L173 702L325 791Z" glyph-name="Uacute" horiz-adv-x="500" unicode="Ú"/><glyph d="M50 623H129Q130 623 130 621Q130 617 126 610T119 591V214Q119 162 129 134T157 87T199 59T252 48Q280 50 304 58T347 85T376 134T387 217V623H454V218Q454 157 441 115T399 45T334 3T251 -11Q206 -11 169 3T106 44T65 110T50 215V623ZM114 692L245 791H267L390 693L357 655L254 726L142 658L114 692Z" glyph-name="Ucircumflex" horiz-adv-x="500" unicode="Û"/><glyph d="M50 623H129Q130 623 130 621Q130 617 126 610T119 591V214Q119 162 129 134T157 87T199 59T252 48Q280 50 304 58T347 85T376 134T387 217V623H454V218Q454 157 441 115T399 45T334 3T251 -11Q206 -11 169 3T106 44T65 110T50 215V623ZM201 774Q216 759 216 738Q216 718 201 703T165 688Q145 688 130 703T115 738Q115 758 130 773T165 789Q186 789 201 774ZM379 774Q394 759 394 738Q394 718 379 703T343 688Q323 688 309 702T294 738Q294 759 308 774T343 789Q364 789 379 774Z" glyph-name="Udieresis" horiz-adv-x="500" unicode="Ü"/><glyph d="M28 623H108L261 321L399 623H473L296 246V0H220V246L28 623ZM325 791L365 721L196 660L173 702L325 791Z" glyph-name="Yacute" horiz-adv-x="500" unicode="Ý"/><glyph d="M59 623H137Q139 621 139 620Q139 617 135 611T129 595V506H259Q311 506 347 492T407 454T442 398T456 330Q454 294 443 263T409 208T351 172T264 158H129V0H59V623ZM129 440V219H264Q296 219 318 227T354 250T375 285T384 328Q382 351 375 371T352 407T314 431T257 440H129Z" glyph-name="Thorn" horiz-adv-x="500" unicode="Þ"/><glyph d="M55 0V423Q55 547 105 608T239 669Q276 669 309 655T366 616T405 560T420 493Q420 450 399 414T341 359Q369 350 392 333T431 293T455 241T464 181Q464 140 450 106T411 45T353 5T281 -10Q223 -10 177 21L212 77Q242 53 285 53Q306 53 326 63T363 90T388 128T398 173Q396 207 387 235T359 282T313 312T244 323H214V380H250Q268 380 286 387T319 409T343 446T352 501Q352 522 344 542T320 577T283 602T237 611Q210 611 189 598T153 560T131 501T123 425V0H55Z" glyph-name="germandbls" horiz-adv-x="500" unicode="ß"/><glyph d="M91 403Q152 467 254 467Q338 467 386 425T435 283V0H367V50Q294 -11 203 -11Q167 -11 139 0T90 29T60 70T49 116Q49 185 108 225T280 269H366V286Q366 354 338 381T249 408Q175 408 126 357L91 403ZM369 214H352Q338 214 326 214T301 215Q246 215 211 208T156 187T129 158T121 122Q121 90 149 67T218 44Q248 44 272 53T314 76T343 104T359 130Q369 150 369 184V214ZM243 699L331 552L281 522L180 657L243 699Z" glyph-name="agrave" horiz-adv-x="500" unicode="à"/><glyph d="M91 403Q152 467 254 467Q338 467 386 425T435 283V0H367V50Q294 -11 203 -11Q167 -11 139 0T90 29T60 70T49 116Q49 185 108 225T280 269H366V286Q366 354 338 381T249 408Q175 408 126 357L91 403ZM369 214H352Q338 214 326 214T301 215Q246 215 211 208T156 187T129 158T121 122Q121 90 149 67T218 44Q248 44 272 53T314 76T343 104T359 130Q369 150 369 184V214ZM292 699L355 657L254 522L204 552L292 699Z" glyph-name="aacute" horiz-adv-x="500" unicode="á"/><glyph d="M91 403Q152 467 254 467Q338 467 386 425T435 283V0H367V50Q294 -11 203 -11Q167 -11 139 0T90 29T60 70T49 116Q49 185 108 225T280 269H366V286Q366 354 338 381T249 408Q175 408 126 357L91 403ZM369 214H352Q338 214 326 214T301 215Q246 215 211 208T156 187T129 158T121 122Q121 90 149 67T218 44Q248 44 272 53T314 76T343 104T359 130Q369 150 369 184V214ZM141 545L252 685H274L384 544L338 509L260 612L179 510L141 545Z" glyph-name="acircumflex" horiz-adv-x="500" unicode="â"/><glyph d="M91 403Q152 467 254 467Q338 467 386 425T435 283V0H367V50Q294 -11 203 -11Q167 -11 139 0T90 29T60 70T49 116Q49 185 108 225T280 269H366V286Q366 354 338 381T249 408Q175 408 126 357L91 403ZM369 214H352Q338 214 326 214T301 215Q246 215 211 208T156 187T129 158T121 122Q121 90 149 67T218 44Q248 44 272 53T314 76T343 104T359 130Q369 150 369 184V214ZM144 557L100 589Q154 676 213 676Q231 676 251 665T288 639T317 613T338 601Q350 601 358 605T373 616T386 633T401 654L438 614Q408 578 387 561T342 543Q319 543 301 555T268 581T240 607T214 619Q192 619 179 606T144 557Z" glyph-name="atilde" horiz-adv-x="500" unicode="ã"/><glyph d="M91 403Q152 467 254 467Q338 467 386 425T435 283V0H367V50Q294 -11 203 -11Q167 -11 139 0T90 29T60 70T49 116Q49 185 108 225T280 269H366V286Q366 354 338 381T249 408Q175 408 126 357L91 403ZM369 214H352Q338 214 326 214T301 215Q246 215 211 208T156 187T129 158T121 122Q121 90 149 67T218 44Q248 44 272 53T314 76T343 104T359 130Q369 150 369 184V214ZM210 650Q225 635 225 614Q225 594 210 579T175 564Q154 564 139 579T124 614Q124 634 139 649T175 665Q195 665 210 650ZM388 650Q403 635 403 614Q403 594 388 579T353 564Q332 564 318 578T303 614Q303 635 317 650T353 665Q373 665 388 650Z" glyph-name="adieresis" horiz-adv-x="500" unicode="ä"/><glyph d="M91 403Q152 467 254 467Q338 467 386 425T435 283V0H367V50Q294 -11 203 -11Q167 -11 139 0T90 29T60 70T49 116Q49 185 108 225T280 269H366V286Q366 354 338 381T249 408Q175 408 126 357L91 403ZM369 214H352Q338 214 326 214T301 215Q246 215 211 208T156 187T129 158T121 122Q121 90 149 67T218 44Q248 44 272 53T314 76T343 104T359 130Q369 150 369 184V214ZM321 667Q348 640 348 605Q348 587 341 571T321 543T291 524T256 517Q238 517 222 524T193 543T173 571T165 605Q165 623 172 639T192 667T221 686T256 693Q293 693 321 667ZM257 652Q240 652 228 639T216 606Q216 587 228 574T257 560Q274 560 286 573T299 606Q299 625 287 638T257 652Z" glyph-name="aring" horiz-adv-x="500" unicode="å"/><glyph d="M31 412Q74 467 147 467Q183 467 212 451T258 405Q275 434 303 450T362 467Q430 467 460 414T490 268V230L282 223V175Q282 117 310 82T386 47Q432 47 459 84L494 42Q450 -11 380 -11Q342 -11 309 7T255 58Q238 26 208 8T142 -11Q113 -11 89 1T47 32T20 75T10 123Q10 192 61 233T198 278L221 279V305Q221 354 199 382T142 411Q97 411 66 368L31 412ZM221 219L199 218Q162 216 138 209T100 189T80 159T74 122Q74 108 80 96T96 73T118 56T144 50Q187 50 204 76T222 158Q222 164 222 169T221 181V219ZM282 279L432 284V305Q432 354 414 382T362 411Q326 411 304 378T282 296V279Z" glyph-name="ae" horiz-adv-x="500" unicode="æ"/><glyph d="M327 -109Q327 -85 280 -85H250L260 -10Q216 -6 179 13T114 64T72 138T56 231Q56 280 73 323T120 398T193 448T286 466Q340 466 384 444T457 381L406 322Q401 325 401 328T400 338T394 353T369 377Q335 405 276 405Q247 405 221 393T174 359T142 305T130 234Q130 195 142 162T175 105T225 68T289 54Q358 54 408 110L450 61Q391 -2 304 -10L299 -47L316 -48Q384 -53 384 -103Q384 -131 356 -154T268 -177Q209 -177 157 -140L182 -98Q225 -134 281 -134Q307 -134 317 -127T327 -109Z" glyph-name="ccedilla" horiz-adv-x="500" unicode="ç"/><glyph d="M259 468Q295 468 329 455T388 416T429 348T445 251Q445 243 445 235T443 218H118Q120 170 134 138T171 85T220 57T274 48Q345 48 392 99L432 60Q374 -10 272 -10Q222 -10 181 5T110 51T65 125T49 227Q49 285 65 330T110 405T177 452T259 468ZM121 274H372Q372 278 372 281T373 290Q373 315 364 337T338 376T301 403T254 413Q207 413 169 380T121 274ZM243 699L331 552L281 522L180 657L243 699Z" glyph-name="egrave" horiz-adv-x="500" unicode="è"/><glyph d="M259 468Q295 468 329 455T388 416T429 348T445 251Q445 243 445 235T443 218H118Q120 170 134 138T171 85T220 57T274 48Q345 48 392 99L432 60Q374 -10 272 -10Q222 -10 181 5T110 51T65 125T49 227Q49 285 65 330T110 405T177 452T259 468ZM121 274H372Q372 278 372 281T373 290Q373 315 364 337T338 376T301 403T254 413Q207 413 169 380T121 274ZM292 699L355 657L254 522L204 552L292 699Z" glyph-name="eacute" horiz-adv-x="500" unicode="é"/><glyph d="M259 468Q295 468 329 455T388 416T429 348T445 251Q445 243 445 235T443 218H118Q120 170 134 138T171 85T220 57T274 48Q345 48 392 99L432 60Q374 -10 272 -10Q222 -10 181 5T110 51T65 125T49 227Q49 285 65 330T110 405T177 452T259 468ZM121 274H372Q372 278 372 281T373 290Q373 315 364 337T338 376T301 403T254 413Q207 413 169 380T121 274ZM134 545L245 685H267L377 544L331 509L253 612L172 510L134 545Z" glyph-name="ecircumflex" horiz-adv-x="500" unicode="ê"/><glyph d="M259 468Q295 468 329 455T388 416T429 348T445 251Q445 243 445 235T443 218H118Q120 170 134 138T171 85T220 57T274 48Q345 48 392 99L432 60Q374 -10 272 -10Q222 -10 181 5T110 51T65 125T49 227Q49 285 65 330T110 405T177 452T259 468ZM121 274H372Q372 278 372 281T373 290Q373 315 364 337T338 376T301 403T254 413Q207 413 169 380T121 274ZM199 650Q214 635 214 614Q214 594 199 579T164 564Q143 564 128 579T113 614Q113 634 128 649T164 665Q184 665 199 650ZM377 650Q392 635 392 614Q392 594 377 579T342 564Q321 564 307 578T292 614Q292 635 306 650T342 665Q362 665 377 650Z" glyph-name="edieresis" horiz-adv-x="500" unicode="ë"/><glyph d="M106 457H289V58H396V0H100V58H217V399H106V457ZM449 699L537 552L487 522L386 657L449 699Z" glyph-name="igrave" horiz-adv-x="500" unicode="ì"/><glyph d="M106 457H289V58H396V0H100V58H217V399H106V457ZM540 699L603 657L502 522L452 552L540 699Z" glyph-name="iacute" horiz-adv-x="500" unicode="í"/><glyph d="M106 457H289V58H396V0H100V58H217V399H106V457ZM370 545L481 685H503L613 544L567 509L489 612L408 510L370 545Z" glyph-name="icircumflex" horiz-adv-x="500" unicode="î"/><glyph d="M106 457H289V58H396V0H100V58H217V399H106V457ZM446 650Q461 635 461 614Q461 594 446 579T411 564Q390 564 375 579T360 614Q360 634 375 649T411 665Q431 665 446 650ZM624 650Q639 635 639 614Q639 594 624 579T589 564Q568 564 554 578T539 614Q539 635 553 650T589 665Q609 665 624 650Z" glyph-name="idieresis" horiz-adv-x="500" unicode="ï"/><glyph d="M256 50Q281 50 304 60T346 93T376 150T387 232Q387 280 375 313T344 367T301 397T253 406Q229 406 205 395T161 362T129 308T117 232Q117 191 128 158T157 100T201 63T256 50ZM347 570Q460 442 460 253Q460 193 447 144T408 61T344 7T256 -12Q212 -12 173 5T105 54T58 129T40 223Q40 273 57 317T102 395T167 447T242 467Q320 467 369 415Q353 453 332 487T283 552L155 516L137 564L241 592Q196 630 139 656L220 672Q265 647 307 610L415 639L432 595L347 570Z" glyph-name="eth" horiz-adv-x="500" unicode="ð"/><glyph d="M68 0V457H142V376Q168 418 208 443T291 468Q321 468 347 458T392 424T421 365T432 277V0H361V275Q361 347 337 376T277 405Q254 405 230 395T187 367T155 322T142 263V0H68ZM387 557L343 589Q397 676 456 676Q474 676 494 665T531 639T560 613T581 601Q593 601 601 605T616 616T629 633T644 654L681 614Q651 578 630 561T585 543Q562 543 544 555T511 581T483 607T457 619Q435 619 422 606T387 557Z" glyph-name="ntilde" horiz-adv-x="500" unicode="ñ"/><glyph d="M254 467Q296 467 333 451T399 403T443 328T460 228Q460 172 444 128T400 53T334 5T253 -12Q209 -12 171 6T103 55T57 131T40 226Q40 277 57 322T104 398T173 448T254 467ZM388 226Q388 269 377 302T346 359T303 394T251 406Q224 406 200 394T157 359T127 304T116 230Q116 190 127 157T156 100T200 63T253 50Q281 50 305 61T348 95T377 151T388 226ZM243 699L331 552L281 522L180 657L243 699Z" glyph-name="ograve" horiz-adv-x="500" unicode="ò"/><glyph d="M254 467Q296 467 333 451T399 403T443 328T460 228Q460 172 444 128T400 53T334 5T253 -12Q209 -12 171 6T103 55T57 131T40 226Q40 277 57 322T104 398T173 448T254 467ZM388 226Q388 269 377 302T346 359T303 394T251 406Q224 406 200 394T157 359T127 304T116 230Q116 190 127 157T156 100T200 63T253 50Q281 50 305 61T348 95T377 151T388 226ZM292 699L355 657L254 522L204 552L292 699Z" glyph-name="oacute" horiz-adv-x="500" unicode="ó"/><glyph d="M254 467Q296 467 333 451T399 403T443 328T460 228Q460 172 444 128T400 53T334 5T253 -12Q209 -12 171 6T103 55T57 131T40 226Q40 277 57 322T104 398T173 448T254 467ZM388 226Q388 269 377 302T346 359T303 394T251 406Q224 406 200 394T157 359T127 304T116 230Q116 190 127 157T156 100T200 63T253 50Q281 50 305 61T348 95T377 151T388 226ZM134 545L245 685H267L377 544L331 509L253 612L172 510L134 545Z" glyph-name="ocircumflex" horiz-adv-x="500" unicode="ô"/><glyph d="M254 467Q296 467 333 451T399 403T443 328T460 228Q460 172 444 128T400 53T334 5T253 -12Q209 -12 171 6T103 55T57 131T40 226Q40 277 57 322T104 398T173 448T254 467ZM388 226Q388 269 377 302T346 359T303 394T251 406Q224 406 200 394T157 359T127 304T116 230Q116 190 127 157T156 100T200 63T253 50Q281 50 305 61T348 95T377 151T388 226ZM135 557L91 589Q145 676 204 676Q222 676 242 665T279 639T308 613T329 601Q341 601 349 605T364 616T377 633T392 654L429 614Q399 578 378 561T333 543Q310 543 292 555T259 581T231 607T205 619Q183 619 170 606T135 557Z" glyph-name="otilde" horiz-adv-x="500" unicode="õ"/><glyph d="M254 467Q296 467 333 451T399 403T443 328T460 228Q460 172 444 128T400 53T334 5T253 -12Q209 -12 171 6T103 55T57 131T40 226Q40 277 57 322T104 398T173 448T254 467ZM388 226Q388 269 377 302T346 359T303 394T251 406Q224 406 200 394T157 359T127 304T116 230Q116 190 127 157T156 100T200 63T253 50Q281 50 305 61T348 95T377 151T388 226ZM198 650Q213 635 213 614Q213 594 198 579T163 564Q142 564 127 579T112 614Q112 634 127 649T163 665Q183 665 198 650ZM376 650Q391 635 391 614Q391 594 376 579T341 564Q320 564 306 578T291 614Q291 635 305 650T341 665Q361 665 376 650Z" glyph-name="odieresis" horiz-adv-x="500" unicode="ö"/><glyph d="M71 348H431V281H71V348ZM287 498Q300 483 300 466Q300 448 287 435T255 422Q237 422 224 435T211 466Q211 485 224 498T255 512Q273 512 287 498ZM287 190Q300 175 300 158Q300 140 287 127T256 114Q238 114 224 126T210 158Q210 178 224 191T256 204Q273 204 287 190Z" glyph-name="divide" horiz-adv-x="500" unicode="÷"/><glyph d="M252 406Q225 406 201 394T157 359T127 305T116 235Q116 159 150 110L304 393Q279 406 252 406ZM386 417Q460 349 460 233Q460 175 444 130T400 53T335 5T255 -12Q205 -12 162 10L122 -64L70 -37L114 44Q40 115 40 221Q40 275 57 320T104 397T173 448T257 467Q296 467 335 450L372 519L425 490L386 417ZM351 354L194 67Q223 50 255 50Q282 50 306 62T348 96T377 151T388 223Q388 305 351 354Z" glyph-name="oslash" horiz-adv-x="500" unicode="ø"/><glyph d="M63 457H135V202Q135 158 143 129T165 81T198 55T239 47Q263 49 285 59T324 87T352 135T362 205V457H435V41Q435 18 440 0H364Q363 7 362 15T362 35L363 70Q341 32 304 11T221 -11Q186 -11 158 1T108 40T74 106T62 202L63 457ZM243 699L331 552L281 522L180 657L243 699Z" glyph-name="ugrave" horiz-adv-x="500" unicode="ù"/><glyph d="M63 457H135V202Q135 158 143 129T165 81T198 55T239 47Q263 49 285 59T324 87T352 135T362 205V457H435V41Q435 18 440 0H364Q363 7 362 15T362 35L363 70Q341 32 304 11T221 -11Q186 -11 158 1T108 40T74 106T62 202L63 457ZM292 699L355 657L254 522L204 552L292 699Z" glyph-name="uacute" horiz-adv-x="500" unicode="ú"/><glyph d="M63 457H135V202Q135 158 143 129T165 81T198 55T239 47Q263 49 285 59T324 87T352 135T362 205V457H435V41Q435 18 440 0H364Q363 7 362 15T362 35L363 70Q341 32 304 11T221 -11Q186 -11 158 1T108 40T74 106T62 202L63 457ZM134 545L245 685H267L377 544L331 509L253 612L172 510L134 545Z" glyph-name="ucircumflex" horiz-adv-x="500" unicode="û"/><glyph d="M63 457H135V202Q135 158 143 129T165 81T198 55T239 47Q263 49 285 59T324 87T352 135T362 205V457H435V41Q435 18 440 0H364Q363 7 362 15T362 35L363 70Q341 32 304 11T221 -11Q186 -11 158 1T108 40T74 106T62 202L63 457ZM198 650Q213 635 213 614Q213 594 198 579T163 564Q142 564 127 579T112 614Q112 634 127 649T163 665Q183 665 198 650ZM376 650Q391 635 391 614Q391 594 376 579T341 564Q320 564 306 578T291 614Q291 635 305 650T341 665Q361 665 376 650Z" glyph-name="udieresis" horiz-adv-x="500" unicode="ü"/><glyph d="M59 425L46 457H135Q135 449 133 444T131 433Q131 429 133 427L267 91L354 336Q367 371 375 401T388 457H463Q454 431 444 398T418 325L294 -2L275 -52Q251 -119 214 -146T127 -174Q62 -174 22 -135L60 -71Q63 -74 65 -80T68 -89Q68 -89 72 -93T82 -102T99 -111T121 -115Q150 -115 172 -97T217 -32L231 2L59 425ZM292 699L355 657L254 522L204 552L292 699Z" glyph-name="yacute" horiz-adv-x="500" unicode="ý"/><glyph d="M60 665H140Q140 658 137 649T133 632V387Q156 424 194 445T272 467Q310 467 344 453T405 409T447 336T463 232Q463 172 447 126T403 50T342 4T271 -12Q229 -12 193 7T134 60V-167H60V665ZM133 190Q135 116 167 84T246 52Q271 52 296 60T341 87T375 139T388 219Q388 307 352 356T249 406Q229 406 208 399T171 375T144 330T133 259V190Z" glyph-name="thorn" horiz-adv-x="500" unicode="þ"/><glyph d="M59 425L46 457H135Q135 449 133 444T131 433Q131 429 133 427L267 91L354 336Q367 371 375 401T388 457H463Q454 431 444 398T418 325L294 -2L275 -52Q251 -119 214 -146T127 -174Q62 -174 22 -135L60 -71Q63 -74 65 -80T68 -89Q68 -89 72 -93T82 -102T99 -111T121 -115Q150 -115 172 -97T217 -32L231 2L59 425ZM198 650Q213 635 213 614Q213 594 198 579T163 564Q142 564 127 579T112 614Q112 634 127 649T163 665Q183 665 198 650ZM376 650Q391 635 391 614Q391 594 376 579T341 564Q320 564 306 578T291 614Q291 635 305 650T341 665Q361 665 376 650Z" glyph-name="ydieresis" horiz-adv-x="500" unicode="ÿ"/><glyph d="M182 450Q182 531 288 638L323 607Q295 582 277 552T258 502Q258 492 266 484T283 467T301 449T309 425Q309 401 293 384T250 367Q224 367 203 390T182 450Z" glyph-name="quoteleft" horiz-adv-x="500" unicode="‘"/><glyph d="M306 555Q306 476 199 367L165 397Q193 423 211 453T230 502Q230 512 222 521T204 538T187 556T179 579Q179 604 195 621T238 638Q264 638 285 615T306 555Z" glyph-name="quoteright" horiz-adv-x="500" unicode="’"/><glyph d="M306 20Q306 -59 199 -168L165 -138Q193 -112 211 -82T230 -33Q230 -23 222 -15T205 2T187 20T179 44Q179 69 195 86T238 103Q264 103 285 80T306 20Z" glyph-name="quotesinglbase" horiz-adv-x="500" unicode="‚"/><glyph d="M286 450Q286 531 392 638L426 607Q398 582 380 552T361 502Q361 492 369 484T387 468T405 449T413 425Q413 401 396 384T353 367Q327 367 307 390T286 450ZM79 450Q79 531 185 638L219 607Q191 582 173 552T154 502Q154 492 162 484T180 468T198 449T206 425Q206 401 189 384T146 367Q120 367 100 390T79 450Z" glyph-name="quotedblleft" horiz-adv-x="500" unicode="“"/><glyph d="M202 555Q202 474 96 367L61 397Q90 423 108 453T126 502Q126 512 118 521T100 538T83 556T75 579Q75 604 91 621T134 638Q161 638 181 615T202 555ZM409 555Q409 474 303 367L268 397Q297 423 315 453T333 502Q333 512 326 521T308 538T290 556T282 579Q282 604 298 621T341 638Q368 638 388 615T409 555Z" glyph-name="quotedblright" horiz-adv-x="500" unicode="”"/><glyph d="M409 20Q409 -61 303 -168L268 -138Q297 -112 315 -82T333 -33Q333 -23 325 -15T308 2T290 20T282 44Q282 69 298 86T341 103Q368 103 388 80T409 20ZM202 20Q202 -61 96 -168L61 -138Q90 -112 108 -82T126 -33Q126 -23 118 -15T101 3T83 21T75 44Q75 69 91 86T134 103Q161 103 181 80T202 20Z" glyph-name="quotedblbase" horiz-adv-x="500" unicode="„"/><glyph d="M316 355Q341 330 341 296Q341 262 316 238T256 213Q221 213 196 237T171 296Q171 331 196 355T256 380Q289 380 316 355Z" glyph-name="bullet" horiz-adv-x="500" unicode="•"/><glyph d="M145 253L297 400L336 359L215 241L343 101L303 61L145 230V253Z" glyph-name="guilsinglleft" horiz-adv-x="500" unicode="‹"/><glyph d="M343 253V230L185 61L145 101L273 241L152 359L191 400L343 253Z" glyph-name="guilsinglright" horiz-adv-x="500" unicode="›"/></font>
</defs>
</svg>
